  0
SECTION
  2
HEADER
  9
$ACADVER
  1
AC1015
  9
$ACADMAINTVER
 70
    14
  9
$DWGCODEPAGE
  3
ANSI_932
  9
$INSBASE
 10
0.0
 20
0.0
 30
0.0
  9
$EXTMIN
 10
0.3933981260967982
 20
0.0000002784458744
 30
0.0
  9
$EXTMAX
 10
152.6800375431326
 20
231.9937706286603
 30
0.0
  9
$LIMMIN
 10
0.0
 20
0.0
  9
$LIMMAX
 10
210.0
 20
297.0
  9
$ORTHOMODE
 70
     0
  9
$REGENMODE
 70
     1
  9
$FILLMODE
 70
     1
  9
$QTEXTMODE
 70
     0
  9
$MIRRTEXT
 70
     1
  9
$LTSCALE
 40
20.0
  9
$ATTMODE
 70
     1
  9
$TEXTSIZE
 40
3.5
  9
$TRACEWID
 40
1.0
  9
$TEXTSTYLE
  7
STANDARD
  9
$CLAYER
  8
OBJECT
  9
$CELTYPE
  6
BYLAYER
  9
$CECOLOR
 62
   256
  9
$CELTSCALE
 40
1.0
  9
$DISPSILH
 70
     0
  9
$DIMSCALE
 40
1.0
  9
$DIMASZ
 40
2.5
  9
$DIMEXO
 40
1.0
  9
$DIMDLI
 40
7.0
  9
$DIMRND
 40
0.0
  9
$DIMDLE
 40
0.0
  9
$DIMEXE
 40
1.0
  9
$DIMTP
 40
0.0
  9
$DIMTM
 40
0.0
  9
$DIMTXT
 40
2.5
  9
$DIMCEN
 40
-7.0
  9
$DIMTSZ
 40
0.0
  9
$DIMTOL
 70
     0
  9
$DIMLIM
 70
     0
  9
$DIMTIH
 70
     0
  9
$DIMTOH
 70
     0
  9
$DIMSE1
 70
     0
  9
$DIMSE2
 70
     0
  9
$DIMTAD
 70
     1
  9
$DIMZIN
 70
     8
  9
$DIMBLK
  1

  9
$DIMASO
 70
     1
  9
$DIMSHO
 70
     1
  9
$DIMPOST
  1

  9
$DIMAPOST
  1

  9
$DIMALT
 70
     0
  9
$DIMALTD
 70
     2
  9
$DIMALTF
 40
0.0394
  9
$DIMLFAC
 40
1.0
  9
$DIMTOFL
 70
     1
  9
$DIMTVP
 40
0.0
  9
$DIMTIX
 70
     1
  9
$DIMSOXD
 70
     1
  9
$DIMSAH
 70
     0
  9
$DIMBLK1
  1

  9
$DIMBLK2
  1

  9
$DIMSTYLE
  2
JIS
  9
$DIMCLRD
 70
     0
  9
$DIMCLRE
 70
     0
  9
$DIMCLRT
 70
     0
  9
$DIMTFAC
 40
1.0
  9
$DIMGAP
 40
0.0
  9
$DIMJUST
 70
     0
  9
$DIMSD1
 70
     0
  9
$DIMSD2
 70
     0
  9
$DIMTOLJ
 70
     1
  9
$DIMTZIN
 70
     0
  9
$DIMALTZ
 70
     0
  9
$DIMALTTZ
 70
     0
  9
$DIMUPT
 70
     0
  9
$DIMDEC
 70
     4
  9
$DIMTDEC
 70
     4
  9
$DIMALTU
 70
     2
  9
$DIMALTTD
 70
     2
  9
$DIMTXSTY
  7
STANDARD
  9
$DIMAUNIT
 70
     0
  9
$DIMADEC
 70
     0
  9
$DIMALTRND
 40
0.0
  9
$DIMAZIN
 70
     0
  9
$DIMDSEP
 70
    46
  9
$DIMATFIT
 70
     3
  9
$DIMFRAC
 70
     0
  9
$DIMLDRBLK
  1

  9
$DIMLUNIT
 70
     2
  9
$DIMLWD
 70
    -2
  9
$DIMLWE
 70
    -2
  9
$DIMTMOVE
 70
     0
  9
$LUNITS
 70
     2
  9
$LUPREC
 70
     4
  9
$SKETCHINC
 40
1.0
  9
$FILLETRAD
 40
4.0
  9
$AUNITS
 70
     0
  9
$AUPREC
 70
     0
  9
$MENU
  1
acad
  9
$ELEVATION
 40
0.0
  9
$PELEVATION
 40
0.0
  9
$THICKNESS
 40
0.0
  9
$LIMCHECK
 70
     0
  9
$CHAMFERA
 40
10.0
  9
$CHAMFERB
 40
10.0
  9
$CHAMFERC
 40
0.0
  9
$CHAMFERD
 40
0.0
  9
$SKPOLY
 70
     1
  9
$TDCREATE
 40
2451396.923259953
  9
$TDUCREATE
 40
2451396.548259953
  9
$TDUPDATE
 40
2454252.559455231
  9
$TDUUPDATE
 40
2454252.184455231
  9
$TDINDWG
 40
0.3571474537
  9
$TDUSRTIMER
 40
0.3571460532
  9
$USRTIMER
 70
     1
  9
$ANGBASE
 50
0.0
  9
$ANGDIR
 70
     0
  9
$PDMODE
 70
     0
  9
$PDSIZE
 40
0.0
  9
$PLINEWID
 40
0.0
  9
$SPLFRAME
 70
     0
  9
$SPLINETYPE
 70
     6
  9
$SPLINESEGS
 70
     8
  9
$HANDSEED
  5
7846
  9
$SURFTAB1
 70
     6
  9
$SURFTAB2
 70
     6
  9
$SURFTYPE
 70
     6
  9
$SURFU
 70
     6
  9
$SURFV
 70
     6
  9
$UCSBASE
  2

  9
$UCSNAME
  2

  9
$UCSORG
 10
0.0
 20
0.0
 30
0.0
  9
$UCSXDIR
 10
1.0
 20
0.0
 30
0.0
  9
$UCSYDIR
 10
0.0
 20
1.0
 30
0.0
  9
$UCSORTHOREF
  2

  9
$UCSORTHOVIEW
 70
     0
  9
$UCSORGTOP
 10
0.0
 20
0.0
 30
0.0
  9
$UCSORGBOTTOM
 10
0.0
 20
0.0
 30
0.0
  9
$UCSORGLEFT
 10
0.0
 20
0.0
 30
0.0
  9
$UCSORGRIGHT
 10
0.0
 20
0.0
 30
0.0
  9
$UCSORGFRONT
 10
0.0
 20
0.0
 30
0.0
  9
$UCSORGBACK
 10
0.0
 20
0.0
 30
0.0
  9
$PUCSBASE
  2

  9
$PUCSNAME
  2

  9
$PUCSORG
 10
0.0
 20
0.0
 30
0.0
  9
$PUCSXDIR
 10
1.0
 20
0.0
 30
0.0
  9
$PUCSYDIR
 10
0.0
 20
1.0
 30
0.0
  9
$PUCSORTHOREF
  2

  9
$PUCSORTHOVIEW
 70
     0
  9
$PUCSORGTOP
 10
0.0
 20
0.0
 30
0.0
  9
$PUCSORGBOTTOM
 10
0.0
 20
0.0
 30
0.0
  9
$PUCSORGLEFT
 10
0.0
 20
0.0
 30
0.0
  9
$PUCSORGRIGHT
 10
0.0
 20
0.0
 30
0.0
  9
$PUCSORGFRONT
 10
0.0
 20
0.0
 30
0.0
  9
$PUCSORGBACK
 10
0.0
 20
0.0
 30
0.0
  9
$USERI1
 70
     0
  9
$USERI2
 70
     0
  9
$USERI3
 70
     0
  9
$USERI4
 70
     0
  9
$USERI5
 70
     0
  9
$USERR1
 40
0.0
  9
$USERR2
 40
0.0
  9
$USERR3
 40
0.0
  9
$USERR4
 40
0.0
  9
$USERR5
 40
0.0
  9
$WORLDVIEW
 70
     1
  9
$SHADEDGE
 70
     3
  9
$SHADEDIF
 70
    70
  9
$TILEMODE
 70
     1
  9
$MAXACTVP
 70
    48
  9
$PINSBASE
 10
0.0
 20
0.0
 30
0.0
  9
$PLIMCHECK
 70
     0
  9
$PEXTMIN
 10
1.000000000000000E+20
 20
1.000000000000000E+20
 30
1.000000000000000E+20
  9
$PEXTMAX
 10
-1.000000000000000E+20
 20
-1.000000000000000E+20
 30
-1.000000000000000E+20
  9
$PLIMMIN
 10
-5.027069091796875
 20
-5.027083396911621
  9
$PLIMMAX
 10
291.89892578125
 20
204.9462442398071
  9
$UNITMODE
 70
     0
  9
$VISRETAIN
 70
     1
  9
$PLINEGEN
 70
     0
  9
$PSLTSCALE
 70
     1
  9
$TREEDEPTH
 70
  3020
  9
$CMLSTYLE
  2
STANDARD
  9
$CMLJUST
 70
     0
  9
$CMLSCALE
 40
1.0
  9
$PROXYGRAPHICS
 70
     1
  9
$MEASUREMENT
 70
     1
  9
$CELWEIGHT
370
    -1
  9
$ENDCAPS
280
     0
  9
$JOINSTYLE
280
     0
  9
$LWDISPLAY
290
     0
  9
$INSUNITS
 70
     0
  9
$HYPERLINKBASE
  1

  9
$STYLESHEET
  1

  9
$XEDIT
290
     1
  9
$CEPSNTYPE
380
     0
  9
$PSTYLEMODE
290
     1
  9
$FINGERPRINTGUID
  2
{B95C5D20-80E2-11D5-97DA-0000F45FD7A9}
  9
$VERSIONGUID
  2
{9E32BF4B-50F0-461D-B048-21CAE6DA651D}
  9
$EXTNAMES
290
     1
  9
$PSVPSCALE
 40
0.0
  9
$OLESTARTUP
290
     0
  0
ENDSEC
  0
SECTION
  2
CLASSES
  0
CLASS
  1
DICTIONARYVAR
  2
AcDbDictionaryVar
  3
AutoCAD 2000
 90
        0
280
     0
281
     0
  0
CLASS
  1
LWPOLYLINE
  2
AcDbPolyline
  3
AutoCAD 2000
 90
    32768
280
     0
281
     1
  0
CLASS
  1
ACDBDICTIONARYWDFLT
  2
AcDbDictionaryWithDefault
  3
AutoCAD 2000
 90
        0
280
     0
281
     0
  0
CLASS
  1
ACDBPLACEHOLDER
  2
AcDbPlaceHolder
  3
AutoCAD 2000
 90
        0
280
     0
281
     0
  0
CLASS
  1
LAYOUT
  2
AcDbLayout
  3
AutoCAD 2000
 90
        0
280
     0
281
     0
  0
CLASS
  1
RASTERVARIABLES
  2
AcDbRasterVariables
  3
ISM
 90
        0
280
     0
281
     0
  0
ENDSEC
  0
SECTION
  2
TABLES
  0
TABLE
  2
VPORT
  5
6CBB
330
0
100
AcDbSymbolTable
 70
     6
  0
VPORT
  5
7845
330
6CBB
100
AcDbSymbolTableRecord
100
AcDbViewportTableRecord
  2
*Active
 70
     0
 10
0.0
 20
0.0
 11
1.0
 21
1.0
 12
76.52938888353462
 22
115.9952322820844
 13
0.0
 23
0.0
 14
10.0
 24
10.0
 15
10.0
 25
10.0
 16
0.0
 26
0.0
 36
1.0
 17
0.0
 27
0.0
 37
0.0
 40
234.481151091029
 41
1.638790035587188
 42
50.0
 43
0.0
 44
0.0
 50
0.0
 51
0.0
 71
     0
 72
   100
 73
     1
 74
     0
 75
     0
 76
     0
 77
     0
 78
     0
281
     0
 65
     1
110
0.0
120
0.0
130
0.0
111
1.0
121
0.0
131
0.0
112
0.0
122
1.0
132
0.0
 79
     0
146
0.0
  0
ENDTAB
  0
TABLE
  2
LTYPE
  5
6CB8
330
0
100
AcDbSymbolTable
 70
     5
  0
LTYPE
  5
6CC5
330
6CB8
100
AcDbSymbolTableRecord
100
AcDbLinetypeTableRecord
  2
BYBLOCK
 70
     0
  3

 72
    65
 73
     0
 40
0.0
  0
LTYPE
  5
6CC6
330
6CB8
100
AcDbSymbolTableRecord
100
AcDbLinetypeTableRecord
  2
BYLAYER
 70
     0
  3

 72
    65
 73
     0
 40
0.0
  0
LTYPE
  5
6CC7
330
6CB8
100
AcDbSymbolTableRecord
100
AcDbLinetypeTableRecord
  2
CONTINUOUS
 70
     0
  3
Solid line
 72
    65
 73
     0
 40
0.0
  0
LTYPE
  5
6E2C
330
6CB8
100
AcDbSymbolTableRecord
100
AcDbLinetypeTableRecord
  2
ACAD_ISO04W100
 70
     0
  3
ISO long-dash dot ____ . ____ . ____ . ____ . _
 72
    65
 73
     4
 40
30.5
 49
24.0
 74
     0
 49
-3.0
 74
     0
 49
0.5
 74
     0
 49
-3.0
 74
     0
  0
LTYPE
  5
718C
330
6CB8
100
AcDbSymbolTableRecord
100
AcDbLinetypeTableRecord
  2
ACAD_ISO10W100
 70
     0
  3
ISO dash dot __ . __ . __ . __ . __ . __ . __ .
 72
    65
 73
     4
 40
18.5
 49
12.0
 74
     0
 49
-3.0
 74
     0
 49
0.5
 74
     0
 49
-3.0
 74
     0
  0
LTYPE
  5
7502
330
6CB8
100
AcDbSymbolTableRecord
100
AcDbLinetypeTableRecord
  2
DOT
 70
     0
  3
Dot . . . . . . . . . . . . . . . . . . . . . .
 72
    65
 73
     2
 40
6.349999999999998
 49
0.0
 74
     0
 49
-6.349999999999998
 74
     0
  0
LTYPE
  5
7503
330
6CB8
100
AcDbSymbolTableRecord
100
AcDbLinetypeTableRecord
  2
DASHED2
 70
     0
  3
Dashed (.5x) _ _ _ _ _ _ _ _ _ _ _ _ _ _ _ _ _
 72
    65
 73
     2
 40
9.524999999999996
 49
6.349999999999998
 74
     0
 49
-3.174999999999998
 74
     0
  0
ENDTAB
  0
TABLE
  2
LAYER
  5
6CB5
330
0
100
AcDbSymbolTable
 70
     3
  0
LAYER
  5
6CC2
330
6CB5
100
AcDbSymbolTableRecord
100
AcDbLayerTableRecord
  2
0
 70
     2
 62
     7
  6
CONTINUOUS
370
    -3
390
6EEE
  0
LAYER
  5
6CD5
330
6CB5
100
AcDbSymbolTableRecord
100
AcDbLayerTableRecord
  2
DEFPOINTS
 70
     0
 62
     7
  6
CONTINUOUS
290
     0
370
    -3
390
6EEE
  0
LAYER
  5
6CD6
330
6CB5
100
AcDbSymbolTableRecord
100
AcDbLayerTableRecord
  2
OBJECT
 70
     0
 62
     7
  6
CONTINUOUS
370
    -3
390
6EEE
  0
ENDTAB
  0
TABLE
  2
STYLE
  5
6CB6
330
0
100
AcDbSymbolTable
 70
     3
  0
STYLE
  5
6CC3
330
6CB6
100
AcDbSymbolTableRecord
100
AcDbTextStyleTableRecord
  2
STANDARD
 70
     0
 40
0.0
 41
1.0
 50
0.0
 71
     0
 42
3.5
  3
txt
  4

  0
STYLE
  5
6CD1
330
6CB6
100
AcDbSymbolTableRecord
100
AcDbTextStyleTableRecord
  2
ADESK1
 70
     0
 40
0.0
 41
1.0
 50
0.0
 71
     0
 42
5.0
  3
romans
  4
bigfont
  0
STYLE
  5
6E2B
330
6CB6
100
AcDbSymbolTableRecord
100
AcDbTextStyleTableRecord
  2

 70
     1
 40
0.0
 41
1.0
 50
0.0
 71
     0
 42
3.5
  3
ltypeshp.shx
  4

  0
ENDTAB
  0
TABLE
  2
VIEW
  5
6CB9
330
0
100
AcDbSymbolTable
 70
     0
  0
ENDTAB
  0
TABLE
  2
UCS
  5
6CBA
330
0
100
AcDbSymbolTable
 70
     0
  0
ENDTAB
  0
TABLE
  2
APPID
  5
6CBC
330
0
100
AcDbSymbolTable
 70
     3
  0
APPID
  5
6CC4
330
6CBC
100
AcDbSymbolTableRecord
100
AcDbRegAppTableRecord
  2
ACAD
 70
     0
  0
APPID
  5
6E9F
330
6CBC
100
AcDbSymbolTableRecord
100
AcDbRegAppTableRecord
  2
CONTENTTABDATA
 70
     0
  0
APPID
  5
6EA0
330
6CBC
100
AcDbSymbolTableRecord
100
AcDbRegAppTableRecord
  2
CONTENTCURRENTTAB
 70
     0
  0
ENDTAB
  0
TABLE
  2
DIMSTYLE
  5
6CBD
330
0
100
AcDbSymbolTable
 70
     5
100
AcDbDimStyleTable
 71
     1
340
6CD4
  0
DIMSTYLE
105
6CD4
330
6CBD
100
AcDbSymbolTableRecord
100
AcDbDimStyleTableRecord
  2
JIS
 70
     0
 41
2.5
 42
1.0
 43
7.0
 44
1.0
 73
     0
 74
     0
 77
     1
 78
     8
140
2.5
141
0.0
143
0.0394
147
0.0
172
     1
174
     1
175
     1
340
6CC3
  0
DIMSTYLE
105
6F59
102
{ACAD_REACTORS
330
6FF6
330
6FF8
330
6FFC
330
7004
330
7064
330
706D
330
7236
330
725F
330
72B6
102
}
330
6CBD
100
AcDbSymbolTableRecord
100
AcDbDimStyleTableRecord
  2
JIS$0
 70
     0
 40
0.0
 41
5.0
 42
1.0
 43
7.0
 44
1.0
 73
     0
 74
     0
 77
     1
 78
     8
140
2.5
141
-7.0
143
0.0394
147
1.0
172
     1
174
     1
175
     1
176
     5
177
     5
178
     5
289
     0
340
6CC3
  0
DIMSTYLE
105
74E3
330
6CBD
100
AcDbSymbolTableRecord
100
AcDbDimStyleTableRecord
  2
STANDARD
 70
     0
340
6CC3
  0
DIMSTYLE
105
74E4
330
6CBD
100
AcDbSymbolTableRecord
100
AcDbDimStyleTableRecord
  2
ｺﾋﾟｰ - JIS
 70
     0
 41
2.5
 42
1.0
 43
7.0
 44
1.0
 73
     0
 74
     0
 77
     2
 78
     8
140
2.5
141
0.0
143
0.0394
147
0.5
172
     1
174
     1
175
     1
176
     5
177
     5
178
     5
271
     1
272
     1
340
6CC3
  0
DIMSTYLE
105
74E5
330
6CBD
100
AcDbSymbolTableRecord
100
AcDbDimStyleTableRecord
  2
ｺﾋﾟｰ(2) - JIS
 70
     0
 41
2.5
 42
1.0
 43
7.0
 44
1.0
 73
     0
 74
     0
 77
     2
 78
     8
140
2.5
141
0.0
143
0.0394
147
0.5
172
     1
174
     1
175
     1
176
     5
177
     5
178
     5
271
     1
272
     1
340
6CC3
  0
ENDTAB
  0
TABLE
  2
BLOCK_RECORD
  5
6CB4
330
0
100
AcDbSymbolTable
 70
    25
  0
BLOCK_RECORD
  5
6CCB
330
6CB4
100
AcDbSymbolTableRecord
100
AcDbBlockTableRecord
  2
*MODEL_SPACE
340
6EF1
  0
BLOCK_RECORD
  5
7838
330
6CB4
100
AcDbSymbolTableRecord
100
AcDbBlockTableRecord
  2
*Paper_Space
340
7839
  0
BLOCK_RECORD
  5
6CE3
330
6CB4
100
AcDbSymbolTableRecord
100
AcDbBlockTableRecord
  2
TITLE_BLOCK
340
0
  0
BLOCK_RECORD
  5
6E1E
330
6CB4
100
AcDbSymbolTableRecord
100
AcDbBlockTableRecord
  2
A$C6FAD1FE7
340
0
  0
BLOCK_RECORD
  5
6EF9
330
6CB4
100
AcDbSymbolTableRecord
100
AcDbBlockTableRecord
  2
A$C29996E5A
340
0
102
{BLKREFS
331
7051
331
7706
102
}
  0
BLOCK_RECORD
  5
7083
330
6CB4
100
AcDbSymbolTableRecord
100
AcDbBlockTableRecord
  2
*D3
340
0
  0
BLOCK_RECORD
  5
709B
330
6CB4
100
AcDbSymbolTableRecord
100
AcDbBlockTableRecord
  2
*D4
340
0
  0
BLOCK_RECORD
  5
70A9
330
6CB4
100
AcDbSymbolTableRecord
100
AcDbBlockTableRecord
  2
*D5
340
0
  0
BLOCK_RECORD
  5
70B7
330
6CB4
100
AcDbSymbolTableRecord
100
AcDbBlockTableRecord
  2
*D6
340
0
  0
BLOCK_RECORD
  5
70C5
330
6CB4
100
AcDbSymbolTableRecord
100
AcDbBlockTableRecord
  2
*D7
340
0
  0
BLOCK_RECORD
  5
70D1
330
6CB4
100
AcDbSymbolTableRecord
100
AcDbBlockTableRecord
  2
*D8
340
0
  0
BLOCK_RECORD
  5
7178
330
6CB4
100
AcDbSymbolTableRecord
100
AcDbBlockTableRecord
  2
TRANSISTOR_NPN
340
0
310
2800000020000000200000000100040000000000000200000000000000000000000000000000000000000000000080000080000000808000800000008000800080800000C0C0C000808080000000FF0000FF000000FFFF00FF000000FF00FF00FFFF0000FFFFFF00FFFFFFFFFFFFFFFFFFFFFFFFFFFFFF00FFFFFFFFFFFFFF
310
F0FFFFFFFFFFFF000FFFFFFFFFFFFFFFF0FFFFFFFFF00000FFFFFFFFFFFFFFFFF0FFFFFFF000000FFFFFFFFFFFFFFFFFF0FFFFFFFF00000FFFFFFFFFFFFFFFFFF0FFFFFFF00000FFFFFFFFFFFFFFFFFFF0FFFFFF0FFF0FFFFFFFFFFFFFFFFFFFF0FFFF00FFFFFFFFFFFFFFFFFFFFFFFFF0FFF0FFFFFFFFFFFFFFFFFFFFFFFF
310
FFF0F00FFFFFFFFFFFFFFFFFFFFFFFFFFFF0FFFFFFFFFFFFFFFFFFFFFFFFFFFFFFF0FFFFFFFFFFFFFFFFFFFFFFFFFFFFFFF0FFFFFFFFFFFFFFFFFFFFFFFFFFFFFFF0FFFFFFFFFFFFFFFFFFFFFFFFFFFFFFF0FFFFFFFFFFFFFFFFFFFFFFFFFFFFFFF0FFFFFFFFFFFFFFFF0000000000000000FFFFFFFFFFFFFFFFFFFFFFFFFF
310
FFFFF0FFFFFFFFFFFFFFFFFFFFFFFFFFFFFFF0FFFFFFFFFFFFFFFFFFFFFFFFFFFFFFF0FFFFFFFFFFFFFFFFFFFFFFFFFFFFFFF00FFFFFFFFFFFFFFFFFFFFFFFFFFFFFF0F00FFFFFFFFFFFFFFFFFFFFFFFFFFFF0FFF0FFFFFFFFFFFFFFFFFFFFFFFFFFF0FFFF0FFFFFFFFFFFFFFFFFFFFFFFFFF0FFFFF00FFFFFFFFFFFFFFFFF
310
FFFFFFF0FFFFFFF0FFFFFFFFFFFFFFFFFFFFFFF0FFFFFFFF0FFFFFFFFFFFFFFFFFFFFFF0FFFFFFFFF00FFFFFFFFFFFFFFFFFFFF0FFFFFFFFFFF0FFFFFFFFFFFFFFFFFFF0FFFFFFFFFFFF0FFFFFFFFFFFFFFFFFF0FFFFFFFFFFFFF00FFFFFFFFFFFFFFFF0FFFFFFFFFFFFFFF0
102
{BLKREFS
331
71E9
331
7582
102
}
  0
BLOCK_RECORD
  5
7183
330
6CB4
100
AcDbSymbolTableRecord
100
AcDbBlockTableRecord
  2
BATTERY
340
0
310
2800000020000000200000000100040000000000000200000000000000000000000000000000000000000000000080000080000000808000800000008000800080800000C0C0C000808080000000FF0000FF000000FFFF00FF000000FF00FF00FFFF0000FFFFFF00FFFFFFFFFFFFFFFFFFFFFFFFFFFFFFFFFFFFFFFFFFFFFF
310
FFFFFFFFFFFFFFFFFFFFFFFFFFFFFFFFFFFFFFFFFFFFFFFFFFFFFFFFFFFFFFFFFFFFFFFFFFFFFFFFFFFFFFFFFFFFFFFFFFFFFFFFFFFFFFFFFFFFFFFFFFFFFFFFFFFFFFFFFFFFFFFFFFFFFFFFFFFFFFFFFFFFFFFFFFFFFFFFFFFFFFFFFFFFFFFFFFFFFFFFFFFFFFFFFFFFFFFFFFFFFFFF0FFFFFF0FFFFFFFFFFFFFFFFFFFFFF
310
FF0FFFFFF0FFFFFFFFFFFFFFFFFFFFFFFF0FFFFFF0FFFFFFFFFFFFFFFFFFFFFFFF0FFFFFF0FFFFFFFFFFFFFFFFFFFFFFFF0FFFFFF0FFFFFFFFFFFFFFFFFFFF0FFF0FF0FFF0FFFFFFFFFFFFFFFFFFFF0FFF0FF0FFF0FFFFFFFFFFFFFFFFFFFF0FFF0FF0FFF0FFFFFFFFFF00000000000FFF0FF0FFF0000000000FFFFFFFFFFF
310
0FFF0FF0FFF0FFFFFFFFFFFFFFFFFFFF0FFF0FF0FFF0FFFFFFFFFFFFFFFFFFFF0FFF0FF0FFF0FFFFFFFFFFFFFFFFFFFF0FFF0FF0FFF0FFFFFFFFFFFFFFFFFFFFFFFF0FFFFFF0FFFFFFFFFFFFFFFFFFFFFFFF0FFFFFF0FFFFFFFFFFFFFFFFFFFFFFFF0FFFFFF0FFFFFFFFFFFFFFFFFFFFFFFFFFFFFFFFFFFFFFFFFFFFFFFFFF
310
FFFFFFFFFFFFFFFFFFFFFFFFFFFFFFFFFFFFFFFFFFFFFFFFFFFFFFFFFFFFFFFFFFFFFFFFFFFFFFFFFFFFFFFFFFFFFFFFFFFFFFFFFFFFFFFFFFFFFFFFFFFFFFFFFFFFFFFFFFFFFFFFFFFFFFFFFFFFFFFFFFFFFFFFFFFFFFFFFFFFFFFFFFFFFFFFFFFFFFFFFFFFFFFFFFFFFFFF
102
{BLKREFS
331
71D9
331
7576
102
}
  0
BLOCK_RECORD
  5
7237
330
6CB4
100
AcDbSymbolTableRecord
100
AcDbBlockTableRecord
  2
*D11
340
0
  0
BLOCK_RECORD
  5
7260
330
6CB4
100
AcDbSymbolTableRecord
100
AcDbBlockTableRecord
  2
*D12
340
0
  0
BLOCK_RECORD
  5
72B7
330
6CB4
100
AcDbSymbolTableRecord
100
AcDbBlockTableRecord
  2
*D13
340
0
  0
BLOCK_RECORD
  5
7744
330
6CB4
100
AcDbSymbolTableRecord
100
AcDbBlockTableRecord
  2
*D15
340
0
  0
BLOCK_RECORD
  5
7750
330
6CB4
100
AcDbSymbolTableRecord
100
AcDbBlockTableRecord
  2
*D16
340
0
  0
BLOCK_RECORD
  5
775E
330
6CB4
100
AcDbSymbolTableRecord
100
AcDbBlockTableRecord
  2
*D17
340
0
  0
BLOCK_RECORD
  5
776A
330
6CB4
100
AcDbSymbolTableRecord
100
AcDbBlockTableRecord
  2
*D18
340
0
  0
BLOCK_RECORD
  5
7776
330
6CB4
100
AcDbSymbolTableRecord
100
AcDbBlockTableRecord
  2
*D19
340
0
  0
BLOCK_RECORD
  5
7782
330
6CB4
100
AcDbSymbolTableRecord
100
AcDbBlockTableRecord
  2
*D20
340
0
  0
BLOCK_RECORD
  5
7790
330
6CB4
100
AcDbSymbolTableRecord
100
AcDbBlockTableRecord
  2
*D21
340
0
  0
BLOCK_RECORD
  5
779E
330
6CB4
100
AcDbSymbolTableRecord
100
AcDbBlockTableRecord
  2
*D22
340
0
  0
BLOCK_RECORD
  5
77AC
330
6CB4
100
AcDbSymbolTableRecord
100
AcDbBlockTableRecord
  2
*D23
340
0
  0
ENDTAB
  0
ENDSEC
  0
SECTION
  2
BLOCKS
  0
BLOCK
  5
6CD9
330
6CCB
100
AcDbEntity
  8
0
100
AcDbBlockBegin
  2
*MODEL_SPACE
 70
     0
 10
0.0
 20
0.0
 30
0.0
  3
*MODEL_SPACE
  1

  0
ENDBLK
  5
6CDA
330
6CCB
100
AcDbEntity
  8
0
100
AcDbBlockEnd
  0
BLOCK
  5
783A
330
7838
100
AcDbEntity
 67
     1
  8
0
100
AcDbBlockBegin
  2
*Paper_Space
 70
     0
 10
0.0
 20
0.0
 30
0.0
  3
*Paper_Space
  1

  0
ENDBLK
  5
783B
330
7838
100
AcDbEntity
 67
     1
  8
0
100
AcDbBlockEnd
  0
BLOCK
  5
6CE4
330
6CE3
100
AcDbEntity
  8
0
100
AcDbBlockBegin
  2
TITLE_BLOCK
 70
     2
 10
0.0
 20
0.0
 30
0.0
  3
TITLE_BLOCK
  1

  0
LINE
  5
6CE5
330
6CE3
100
AcDbEntity
  8
0
 62
     0
100
AcDbLine
 10
192.7943262411346
 20
16.00000000000008
 30
0.0
 11
200.0
 21
16.00000000000008
 31
0.0
  0
LINE
  5
6CE6
330
6CE3
100
AcDbEntity
  8
0
 62
     0
100
AcDbLine
 10
200.0
 20
10.0
 30
0.0
 11
200.0
 21
49.00000000000036
 31
0.0
  0
LINE
  5
6CE7
330
6CE3
100
AcDbEntity
  8
0
 62
     0
100
AcDbLine
 10
200.0
 20
49.00000000000036
 30
0.0
 11
200.0
 21
10.0
 31
0.0
  0
LINE
  5
6CE8
330
6CE3
100
AcDbEntity
  8
0
 62
     0
100
AcDbLine
 10
192.7943262411346
 20
22.00000000000012
 30
0.0
 11
192.7943262411346
 21
10.0
 31
0.0
  0
LINE
  5
6CE9
330
6CE3
100
AcDbEntity
  8
0
 62
     0
100
AcDbLine
 10
126.1418439716304
 20
49.00000000000036
 30
0.0
 11
126.1418439716304
 21
22.00000000000012
 31
0.0
  0
LINE
  5
6CEA
330
6CE3
100
AcDbEntity
  8
0
 62
     0
100
AcDbLine
 10
115.3333333333325
 20
37.00000000000024
 30
0.0
 11
115.3333333333325
 21
25.00000000000012
 31
0.0
  0
LINE
  5
6CEB
330
6CE3
100
AcDbEntity
  8
0
 62
     0
100
AcDbLine
 10
108.1276595744673
 20
49.00000000000036
 30
0.0
 11
108.1276595744673
 21
25.00000000000012
 31
0.0
  0
LINE
  5
6CEC
330
6CE3
100
AcDbEntity
  8
0
 62
     0
100
AcDbLine
 10
108.1276595744673
 20
25.00000000000012
 30
0.0
 11
138.7517730496447
 21
25.00000000000012
 31
0.0
  0
LINE
  5
6CED
330
6CE3
100
AcDbEntity
  8
0
 62
     0
100
AcDbLine
 10
70.29787234042419
 20
28.00000000000014
 30
0.0
 11
138.7517730496447
 21
28.00000000000014
 31
0.0
  0
LINE
  5
6CEE
330
6CE3
100
AcDbEntity
  8
0
 62
     0
100
AcDbLine
 10
70.29787234042419
 20
31.0000000000002
 30
0.0
 11
138.7517730496447
 21
31.0000000000002
 31
0.0
  0
LINE
  5
6CEF
330
6CE3
100
AcDbEntity
  8
0
 62
     0
100
AcDbLine
 10
70.29787234042419
 20
34.00000000000024
 30
0.0
 11
138.7517730496447
 21
34.00000000000024
 31
0.0
  0
LINE
  5
6CF0
330
6CE3
100
AcDbEntity
  8
0
 62
     0
100
AcDbLine
 10
70.29787234042419
 20
19.00000000000006
 30
0.0
 11
108.1276595744673
 21
19.00000000000012
 31
0.0
  0
LINE
  5
6CF1
330
6CE3
100
AcDbEntity
  8
0
 62
     0
100
AcDbLine
 10
70.29787234042419
 20
22.00000000000007
 30
0.0
 11
108.1276595744673
 21
22.00000000000012
 31
0.0
  0
LINE
  5
6CF2
330
6CE3
100
AcDbEntity
  8
0
 62
     0
100
AcDbLine
 10
70.29787234042419
 20
25.00000000000012
 30
0.0
 11
108.1276595744673
 21
25.00000000000012
 31
0.0
  0
TEXT
  5
6CF3
330
6CE3
100
AcDbEntity
  8
0
 62
     0
100
AcDbText
 10
132.2447163844404
 20
10.55220101068185
 30
0.0
 40
1.791674070777746
  1
照査
  7
ADESK1
 72
     1
 11
134.15583539327
 21
10.55220101068185
 31
0.0
100
AcDbText
  0
TEXT
  5
6CF4
330
6CE3
100
AcDbEntity
  8
0
 62
     0
100
AcDbText
 10
122.2960689314086
 20
10.48329012996928
 30
0.0
 40
1.791674070777746
  1
設計
  7
ADESK1
 72
     1
 11
124.2071879402383
 21
10.48329012996928
 31
0.0
100
AcDbText
  0
TEXT
  5
6CF5
330
6CE3
100
AcDbEntity
  8
0
 62
     0
100
AcDbText
 10
111.7174935280941
 20
10.48329012996928
 30
0.0
 40
1.791674070777746
  1
製図
  7
ADESK1
 72
     1
 11
113.5688900678978
 21
10.48329012996928
 31
0.0
100
AcDbText
  0
LINE
  5
6CF6
330
6CE3
100
AcDbEntity
  8
0
 62
     0
100
AcDbLine
 10
70.29787234042419
 20
10.0
 30
0.0
 11
70.29787234042419
 21
13.00000000000003
 31
0.0
  0
LINE
  5
6CF7
330
6CE3
100
AcDbEntity
  8
0
 62
     0
100
AcDbLine
 10
70.29787234042419
 20
16.00000000000008
 30
0.0
 11
108.1276595744673
 21
16.00000000000008
 31
0.0
  0
LINE
  5
6CF8
330
6CE3
100
AcDbEntity
  8
0
 62
     0
100
AcDbLine
 10
129.4042553191484
 20
22.00000000000007
 30
0.0
 11
129.4042553191484
 21
10.0
 31
0.0
  0
LINE
  5
6CF9
330
6CE3
100
AcDbEntity
  8
0
 62
     0
100
AcDbLine
 10
118.7659574468077
 20
22.00000000000007
 30
0.0
 11
118.7659574468077
 21
10.0
 31
0.0
  0
LINE
  5
6CFA
330
6CE3
100
AcDbEntity
  8
0
 62
     0
100
AcDbLine
 10
138.7517730496447
 20
49.00000000000036
 30
0.0
 11
138.7517730496447
 21
10.0
 31
0.0
  0
LINE
  5
6CFB
330
6CE3
100
AcDbEntity
  8
0
 62
     0
100
AcDbLine
 10
70.29787234042419
 20
49.00000000000036
 30
0.0
 11
70.29787234042419
 21
10.0
 31
0.0
  0
LINE
  5
6CFC
330
6CE3
100
AcDbEntity
  8
0
 62
     0
100
AcDbLine
 10
108.1276595744673
 20
25.00000000000012
 30
0.0
 11
108.1276595744673
 21
10.0
 31
0.0
  0
LINE
  5
6CFD
330
6CE3
100
AcDbEntity
  8
0
 62
     0
100
AcDbLine
 10
102.7234042553184
 20
37.00000000000024
 30
0.0
 11
102.7234042553184
 21
10.0
 31
0.0
  0
LINE
  5
6CFE
330
6CE3
100
AcDbEntity
  8
0
 62
     0
100
AcDbLine
 10
75.70212765957307
 20
37.00000000000024
 30
0.0
 11
75.70212765957307
 21
10.0
 31
0.0
  0
LINE
  5
6CFF
330
6CE3
100
AcDbEntity
  8
0
 62
     0
100
AcDbLine
 10
93.71631205673656
 20
37.00000000000024
 30
0.0
 11
93.71631205673656
 21
10.0
 31
0.0
  0
LINE
  5
6D00
330
6CE3
100
AcDbEntity
  8
0
 62
     0
100
AcDbLine
 10
200.0
 20
49.00000000000036
 30
0.0
 11
70.29787234042419
 21
49.00000000000036
 31
0.0
  0
LINE
  5
6D01
330
6CE3
100
AcDbEntity
  8
0
 62
     0
100
AcDbLine
 10
70.29787234042419
 20
10.0
 30
0.0
 11
200.0
 21
10.0
 31
0.0
  0
LINE
  5
6D02
330
6CE3
100
AcDbEntity
  8
0
 62
     0
100
AcDbLine
 10
108.1276595744673
 20
22.00000000000012
 30
0.0
 11
200.0
 21
22.00000000000012
 31
0.0
  0
LINE
  5
6D03
330
6CE3
100
AcDbEntity
  8
0
 62
     0
100
AcDbLine
 10
70.29787234042419
 20
37.00000000000024
 30
0.0
 11
200.0
 21
37.00000000000024
 31
0.0
  0
LINE
  5
6D04
330
6CE3
100
AcDbEntity
  8
0
 62
     0
100
AcDbLine
 10
70.29787234042419
 20
13.00000000000003
 30
0.0
 11
200.0
 21
13.00000000000003
 31
0.0
  0
LINE
  5
6D05
330
6CE3
100
AcDbEntity
  8
0
 62
     0
100
AcDbLine
 10
70.29787234042419
 20
49.00000000000036
 30
0.0
 11
200.0
 21
49.00000000000036
 31
0.0
  0
LINE
  5
6D06
330
6CE3
100
AcDbEntity
  8
0
100
AcDbLine
 10
200.0
 20
240.8333333333333
 30
0.0
 11
205.0
 21
240.8333333333333
 31
0.0
  0
LINE
  5
6D07
330
6CE3
100
AcDbEntity
  8
0
100
AcDbLine
 10
200.0
 20
194.6666666666667
 30
0.0
 11
205.0
 21
194.6666666666667
 31
0.0
  0
LINE
  5
6D08
330
6CE3
100
AcDbEntity
  8
0
100
AcDbLine
 10
200.0
 20
148.5
 30
0.0
 11
205.0
 21
148.5
 31
0.0
  0
LINE
  5
6D09
330
6CE3
100
AcDbEntity
  8
0
100
AcDbLine
 10
200.0
 20
102.3333333333332
 30
0.0
 11
205.0
 21
102.3333333333332
 31
0.0
  0
LINE
  5
6D0A
330
6CE3
100
AcDbEntity
  8
0
100
AcDbLine
 10
200.0
 20
56.16666666666668
 30
0.0
 11
205.0
 21
56.16666666666668
 31
0.0
  0
LINE
  5
6D0B
330
6CE3
100
AcDbEntity
  8
0
100
AcDbLine
 10
25.0
 20
56.16666666666667
 30
0.0
 11
20.0
 21
56.16666666666667
 31
0.0
  0
LINE
  5
6D0C
330
6CE3
100
AcDbEntity
  8
0
100
AcDbLine
 10
25.0
 20
102.3333333333332
 30
0.0
 11
20.0
 21
102.3333333333332
 31
0.0
  0
LINE
  5
6D0D
330
6CE3
100
AcDbEntity
  8
0
100
AcDbLine
 10
25.0
 20
148.5
 30
0.0
 11
20.0
 21
148.5
 31
0.0
  0
LINE
  5
6D0E
330
6CE3
100
AcDbEntity
  8
0
100
AcDbLine
 10
25.0
 20
194.6666666666666
 30
0.0
 11
20.0
 21
194.6666666666666
 31
0.0
  0
LINE
  5
6D0F
330
6CE3
100
AcDbEntity
  8
0
100
AcDbLine
 10
25.0
 20
240.8333333333333
 30
0.0
 11
20.0
 21
240.8333333333333
 31
0.0
  0
LINE
  5
6D10
330
6CE3
100
AcDbEntity
  8
0
100
AcDbLine
 10
156.25
 20
10.0
 30
0.0
 11
156.25
 21
5.0
 31
0.0
  0
LINE
  5
6D11
330
6CE3
100
AcDbEntity
  8
0
100
AcDbLine
 10
112.5
 20
10.0
 30
0.0
 11
112.5
 21
5.0
 31
0.0
  0
LINE
  5
6D12
330
6CE3
100
AcDbEntity
  8
0
100
AcDbLine
 10
68.75
 20
10.0
 30
0.0
 11
68.75
 21
5.0
 31
0.0
  0
LINE
  5
6D13
330
6CE3
100
AcDbEntity
  8
0
100
AcDbLine
 10
68.75
 20
287.0
 30
0.0
 11
68.75
 21
292.0
 31
0.0
  0
LINE
  5
6D14
330
6CE3
100
AcDbEntity
  8
0
100
AcDbLine
 10
112.5
 20
287.0
 30
0.0
 11
112.5
 21
292.0
 31
0.0
  0
LINE
  5
6D15
330
6CE3
100
AcDbEntity
  8
0
100
AcDbLine
 10
156.25
 20
287.0
 30
0.0
 11
156.25
 21
292.0
 31
0.0
  0
TEXT
  5
6D16
330
6CE3
100
AcDbEntity
  8
0
100
AcDbText
 10
1.0
 20
1.0
 30
0.0
 40
3.0
  1
この図枠はサンプルです。社内の規格やプロッタの出力範囲に合わせて適当に変更してご利用ください。
  7
ADESK1
100
AcDbText
  0
LINE
  5
6D17
330
6CE3
100
AcDbEntity
  8
0
100
AcDbLine
 10
25.0
 20
148.5
 30
0.0
 11
0.0
 21
148.5
 31
0.0
  0
LINE
  5
6D18
330
6CE3
100
AcDbEntity
  8
0
100
AcDbLine
 10
112.5
 20
287.0
 30
0.0
 11
112.5
 21
297.0
 31
0.0
  0
LINE
  5
6D19
330
6CE3
100
AcDbEntity
  8
0
100
AcDbLine
 10
112.5
 20
10.0
 30
0.0
 11
112.5
 21
0.0
 31
0.0
  0
LINE
  5
6D1A
330
6CE3
100
AcDbEntity
  8
0
100
AcDbLine
 10
200.0
 20
148.5
 30
0.0
 11
210.0
 21
148.5
 31
0.0
  0
LINE
  5
6D1B
330
6CE3
100
AcDbEntity
  8
OBJECT
100
AcDbLine
 10
130.0
 20
287.0
 30
0.0
 11
130.0
 21
257.0
 31
0.0
  0
LINE
  5
6D1C
330
6CE3
100
AcDbEntity
  8
OBJECT
100
AcDbLine
 10
119.9999999999999
 20
257.0
 30
0.0
 11
119.9999999999999
 21
287.0
 31
0.0
  0
LINE
  5
6D1D
330
6CE3
100
AcDbEntity
  8
OBJECT
100
AcDbLine
 10
44.5
 20
284.0
 30
0.0
 11
45.49999999999999
 21
284.0
 31
0.0
  0
LINE
  5
6D1E
330
6CE3
100
AcDbEntity
  8
OBJECT
100
AcDbLine
 10
44.5
 20
278.0
 30
0.0
 11
45.49999999999999
 21
278.0
 31
0.0
  0
LINE
  5
6D1F
330
6CE3
100
AcDbEntity
  8
OBJECT
100
AcDbLine
 10
39.5
 20
284.0
 30
0.0
 11
40.49999999999999
 21
284.0
 31
0.0
  0
LINE
  5
6D20
330
6CE3
100
AcDbEntity
  8
OBJECT
100
AcDbLine
 10
39.5
 20
278.0
 30
0.0
 11
40.49999999999999
 21
278.0
 31
0.0
  0
LINE
  5
6D21
330
6CE3
100
AcDbEntity
  8
OBJECT
100
AcDbLine
 10
44.5
 20
272.0
 30
0.0
 11
45.49999999999999
 21
272.0
 31
0.0
  0
LINE
  5
6D22
330
6CE3
100
AcDbEntity
  8
OBJECT
100
AcDbLine
 10
39.5
 20
272.0
 30
0.0
 11
40.49999999999999
 21
272.0
 31
0.0
  0
LINE
  5
6D23
330
6CE3
100
AcDbEntity
  8
OBJECT
100
AcDbLine
 10
44.5
 20
266.0
 30
0.0
 11
45.49999999999999
 21
266.0
 31
0.0
  0
LINE
  5
6D24
330
6CE3
100
AcDbEntity
  8
OBJECT
100
AcDbLine
 10
39.5
 20
266.0
 30
0.0
 11
40.49999999999999
 21
266.0
 31
0.0
  0
LINE
  5
6D25
330
6CE3
100
AcDbEntity
  8
OBJECT
100
AcDbLine
 10
28.0
 20
276.5358979999999
 30
0.0
 11
30.0
 21
280.0
 31
0.0
  0
LINE
  5
6D26
330
6CE3
100
AcDbEntity
  8
OBJECT
100
AcDbLine
 10
28.0
 20
276.5358979999999
 30
0.0
 11
32.0
 21
276.5358979999999
 31
0.0
  0
LINE
  5
6D27
330
6CE3
100
AcDbEntity
  8
OBJECT
100
AcDbLine
 10
32.0
 20
276.5358979999999
 30
0.0
 11
30.0
 21
280.0
 31
0.0
  0
LINE
  5
6D28
330
6CE3
100
AcDbEntity
  8
OBJECT
100
AcDbLine
 10
28.0
 20
282.5358979999998
 30
0.0
 11
32.0
 21
282.5358979999998
 31
0.0
  0
LINE
  5
6D29
330
6CE3
100
AcDbEntity
  8
OBJECT
100
AcDbLine
 10
32.0
 20
282.5358979999998
 30
0.0
 11
30.0
 21
286.0
 31
0.0
  0
LINE
  5
6D2A
330
6CE3
100
AcDbEntity
  8
OBJECT
100
AcDbLine
 10
28.0
 20
282.5358979999998
 30
0.0
 11
30.0
 21
286.0
 31
0.0
  0
LINE
  5
6D2B
330
6CE3
100
AcDbEntity
  8
OBJECT
100
AcDbLine
 10
28.0
 20
270.5358979999999
 30
0.0
 11
30.0
 21
274.0
 31
0.0
  0
LINE
  5
6D2C
330
6CE3
100
AcDbEntity
  8
OBJECT
100
AcDbLine
 10
28.0
 20
270.5358979999999
 30
0.0
 11
32.0
 21
270.5358979999999
 31
0.0
  0
LINE
  5
6D2D
330
6CE3
100
AcDbEntity
  8
OBJECT
100
AcDbLine
 10
32.0
 20
270.5358979999999
 30
0.0
 11
30.0
 21
274.0
 31
0.0
  0
LINE
  5
6D2E
330
6CE3
100
AcDbEntity
  8
OBJECT
100
AcDbLine
 10
28.0
 20
264.5358979999999
 30
0.0
 11
30.0
 21
268.0
 31
0.0
  0
LINE
  5
6D2F
330
6CE3
100
AcDbEntity
  8
OBJECT
100
AcDbLine
 10
28.0
 20
264.5358979999999
 30
0.0
 11
32.0
 21
264.5358979999999
 31
0.0
  0
LINE
  5
6D30
330
6CE3
100
AcDbEntity
  8
OBJECT
100
AcDbLine
 10
32.0
 20
264.5358979999999
 30
0.0
 11
30.0
 21
268.0
 31
0.0
  0
LINE
  5
6D31
330
6CE3
100
AcDbEntity
  8
OBJECT
100
AcDbLine
 10
44.5
 20
260.0
 30
0.0
 11
45.49999999999999
 21
260.0
 31
0.0
  0
LINE
  5
6D32
330
6CE3
100
AcDbEntity
  8
OBJECT
100
AcDbLine
 10
39.5
 20
260.0
 30
0.0
 11
40.49999999999999
 21
260.0
 31
0.0
  0
LINE
  5
6D33
330
6CE3
100
AcDbEntity
  8
OBJECT
100
AcDbLine
 10
28.0
 20
258.5358979999999
 30
0.0
 11
32.0
 21
258.5358979999999
 31
0.0
  0
LINE
  5
6D34
330
6CE3
100
AcDbEntity
  8
OBJECT
100
AcDbLine
 10
80.0
 20
257.0
 30
0.0
 11
80.0
 21
287.0
 31
0.0
  0
LINE
  5
6D35
330
6CE3
100
AcDbEntity
  8
OBJECT
100
AcDbLine
 10
50.0
 20
257.0
 30
0.0
 11
50.0
 21
287.0
 31
0.0
  0
LINE
  5
6D36
330
6CE3
100
AcDbEntity
  8
OBJECT
100
AcDbLine
 10
35.0
 20
257.0
 30
0.0
 11
35.0
 21
287.0
 31
0.0
  0
LINE
  5
6D37
330
6CE3
100
AcDbEntity
  8
OBJECT
100
AcDbLine
 10
32.0
 20
258.5358979999999
 30
0.0
 11
30.0
 21
262.0
 31
0.0
  0
LINE
  5
6D38
330
6CE3
100
AcDbEntity
  8
OBJECT
100
AcDbLine
 10
28.0
 20
258.5358979999999
 30
0.0
 11
30.0
 21
262.0
 31
0.0
  0
LINE
  5
6D39
330
6CE3
100
AcDbEntity
  8
OBJECT
100
AcDbLine
 10
130.0
 20
257.0
 30
0.0
 11
25.0
 21
257.0
 31
0.0
  0
LINE
  5
6D3A
330
6CE3
100
AcDbEntity
  8
OBJECT
100
AcDbLine
 10
130.0
 20
281.0
 30
0.0
 11
25.0
 21
281.0
 31
0.0
  0
LINE
  5
6D3B
330
6CE3
100
AcDbEntity
  8
OBJECT
100
AcDbLine
 10
130.0
 20
275.0
 30
0.0
 11
25.0
 21
275.0
 31
0.0
  0
LINE
  5
6D3C
330
6CE3
100
AcDbEntity
  8
OBJECT
100
AcDbLine
 10
130.0
 20
269.0
 30
0.0
 11
25.0
 21
269.0
 31
0.0
  0
LINE
  5
6D3D
330
6CE3
100
AcDbEntity
  8
OBJECT
100
AcDbLine
 10
130.0
 20
263.0
 30
0.0
 11
25.0
 21
263.0
 31
0.0
  0
ATTDEF
  5
6D3E
330
6CE3
100
AcDbEntity
  8
0
 62
     0
100
AcDbText
 10
133.0
 20
293.0
 30
0.0
 40
3.0
  1

  7
ADESK1
100
AcDbAttributeDefinition
  3

  2
FNAME
 70
     8
  0
ATTDEF
  5
6D3F
330
6CE3
100
AcDbEntity
  8
0
 62
     0
100
AcDbText
 10
85.0
 20
293.0
 30
0.0
 40
3.0
  1

  7
ADESK1
100
AcDbAttributeDefinition
  3

  2
REVDATE
 70
     8
  0
ATTDEF
  5
6D40
330
6CE3
100
AcDbEntity
  8
0
 62
     0
100
AcDbText
 10
25.0
 20
293.0
 30
0.0
 40
3.0
  1

  7
ADESK1
100
AcDbAttributeDefinition
  3

  2
USER
 70
     8
  0
LINE
  5
6D41
330
6CE3
100
AcDbEntity
  8
0
100
AcDbLine
 10
200.0
 20
297.0
 30
0.0
 11
210.0
 21
297.0
 31
0.0
  0
LINE
  5
6D42
330
6CE3
100
AcDbEntity
  8
0
100
AcDbLine
 10
210.0
 20
10.0
 30
0.0
 11
210.0
 21
0.0
 31
0.0
  0
LINE
  5
6D43
330
6CE3
100
AcDbEntity
  8
0
100
AcDbLine
 10
25.0
 20
0.0
 30
0.0
 11
0.0
 21
0.0
 31
0.0
  0
LINE
  5
6D44
330
6CE3
100
AcDbEntity
  8
0
100
AcDbLine
 10
0.0
 20
287.0
 30
0.0
 11
0.0
 21
297.0
 31
0.0
  0
LINE
  5
6D45
330
6CE3
100
AcDbEntity
  8
0
100
AcDbLine
 10
25.0
 20
287.0
 30
0.0
 11
200.0
 21
287.0
 31
0.0
  0
LINE
  5
6D46
330
6CE3
100
AcDbEntity
  8
0
100
AcDbLine
 10
200.0
 20
287.0
 30
0.0
 11
200.0
 21
10.0
 31
0.0
  0
LINE
  5
6D47
330
6CE3
100
AcDbEntity
  8
0
100
AcDbLine
 10
200.0
 20
10.0
 30
0.0
 11
25.0
 21
10.0
 31
0.0
  0
LINE
  5
6D48
330
6CE3
100
AcDbEntity
  8
0
100
AcDbLine
 10
25.0
 20
10.0
 30
0.0
 11
25.0
 21
287.0
 31
0.0
  0
LINE
  5
6D49
330
6CE3
100
AcDbEntity
  8
0
100
AcDbLine
 10
210.0
 20
0.0
 30
0.0
 11
200.0
 21
0.0
 31
0.0
  0
LINE
  5
6D4A
330
6CE3
100
AcDbEntity
  8
0
100
AcDbLine
 10
210.0
 20
297.0
 30
0.0
 11
210.0
 21
287.0
 31
0.0
  0
LINE
  5
6D4B
330
6CE3
100
AcDbEntity
  8
0
100
AcDbLine
 10
0.0
 20
297.0
 30
0.0
 11
25.0
 21
297.0
 31
0.0
  0
LINE
  5
6D4C
330
6CE3
100
AcDbEntity
  8
0
100
AcDbLine
 10
0.0
 20
0.0
 30
0.0
 11
0.0
 21
10.0
 31
0.0
  0
ENDBLK
  5
6D4D
330
6CE3
100
AcDbEntity
  8
0
100
AcDbBlockEnd
  0
BLOCK
  5
6E20
330
6E1E
100
AcDbEntity
  8
0
100
AcDbBlockBegin
  2
A$C6FAD1FE7
 70
     0
 10
0.0
 20
0.0
 30
0.0
  3
A$C6FAD1FE7
  1

  0
ELLIPSE
  5
6E1F
330
6E1E
100
AcDbEntity
  8
DEFPOINTS
100
AcDbEllipse
 10
8.976880225708953
 20
6.606799974781892
 30
0.0
 11
-8.660254037844396
 21
-5.0
 31
0.0
210
0.0
220
0.0
230
0.9999999999999998
 40
0.4999999999999997
 41
0.0
 42
6.283185307179585
  0
ENDBLK
  5
6E21
330
6E1E
100
AcDbEntity
  8
0
100
AcDbBlockEnd
  0
BLOCK
  5
6EFD
330
6EF9
100
AcDbEntity
  8
0
100
AcDbBlockBegin
  2
A$C29996E5A
 70
     0
 10
0.0
 20
0.0
 30
0.0
  3
A$C29996E5A
  1

  0
LINE
  5
6EFA
330
6EF9
100
AcDbEntity
  8
OBJECT
100
AcDbLine
 10
-0.0000003681579983
 20
-0.0000000144649732
 30
0.0
 11
-0.0000003681579983
 21
-0.0000000144649732
 31
0.0
  0
LINE
  5
6EFB
330
6EF9
100
AcDbEntity
  8
OBJECT
100
AcDbLine
 10
0.3999996318419789
 20
1.599999985535021
 30
0.0
 11
-0.0000003681579983
 21
-0.0000000144649732
 31
0.0
  0
LINE
  5
6EFC
330
6EF9
100
AcDbEntity
  8
OBJECT
100
AcDbLine
 10
0.3999996318419789
 20
1.599999985535021
 30
0.0
 11
0.7999996318419848
 21
-0.0000000144649732
 31
0.0
  0
ENDBLK
  5
6EFE
330
6EF9
100
AcDbEntity
  8
0
100
AcDbBlockEnd
  0
BLOCK
  5
708D
330
7083
100
AcDbEntity
  8
0
100
AcDbBlockBegin
  2
*D3
 70
     1
 10
0.0
 20
0.0
 30
0.0
  3
*D3
  1

  0
LINE
  5
70DD
330
7083
100
AcDbEntity
  8
0
 62
     5
370
    -2
100
AcDbLine
 10
32.86171301423021
 20
46.45923995939265
 30
0.0
 11
44.93447130412095
 21
46.45923995939265
 31
0.0
  0
LINE
  5
70DE
330
7083
100
AcDbEntity
  8
0
 62
     5
370
    -2
100
AcDbLine
 10
26.76171228335848
 20
30.95923999191426
 30
0.0
 11
44.93447130412095
 21
30.95923999191426
 31
0.0
  0
LINE
  5
70DF
330
7083
100
AcDbEntity
  8
0
 62
     5
370
    -2
100
AcDbLine
 10
43.93447130412096
 20
43.45923995939265
 30
0.0
 11
43.93447130412096
 21
33.95923999191426
 31
0.0
  0
SOLID
  5
70E0
330
7083
100
AcDbEntity
  8
0
 62
     5
100
AcDbTrace
 10
43.43447130412096
 20
43.45923995939265
 30
0.0
 11
44.43447130412096
 21
43.45923995939265
 31
0.0
 12
43.93447130412096
 22
46.45923995939265
 32
0.0
 13
43.93447130412096
 23
46.45923995939265
 33
0.0
  0
SOLID
  5
70E1
330
7083
100
AcDbEntity
  8
0
 62
     5
100
AcDbTrace
 10
43.43447130412096
 20
33.95923999191426
 30
0.0
 11
44.43447130412096
 21
33.95923999191426
 31
0.0
 12
43.93447130412096
 22
30.95923999191426
 32
0.0
 13
43.93447130412096
 23
30.95923999191426
 33
0.0
  0
MTEXT
  5
70E2
330
7083
100
AcDbEntity
  8
0
 62
     5
100
AcDbMText
 10
41.68447130412095
 20
38.70923997565347
 30
0.0
 40
2.5
 41
0.0
 71
     5
 72
     1
  1
\A1;15±2
 11
0.0000000000000001
 21
1.0
 31
0.0
 73
     1
 44
1.0
  0
POINT
  5
70E3
330
7083
100
AcDbEntity
  8
DEFPOINTS
 62
     0
100
AcDbPoint
 10
31.86171301423021
 20
46.45923995939265
 30
0.0
  0
POINT
  5
70E4
330
7083
100
AcDbEntity
  8
DEFPOINTS
 62
     0
100
AcDbPoint
 10
25.76171228335848
 20
30.95923999191426
 30
0.0
  0
POINT
  5
70E5
330
7083
100
AcDbEntity
  8
DEFPOINTS
 62
     0
100
AcDbPoint
 10
43.93447130412096
 20
30.95923999191426
 30
0.0
  0
ENDBLK
  5
708E
330
7083
100
AcDbEntity
  8
0
100
AcDbBlockEnd
  0
BLOCK
  5
70A7
330
709B
100
AcDbEntity
  8
0
100
AcDbBlockBegin
  2
*D4
 70
     1
 10
0.0
 20
0.0
 30
0.0
  3
*D4
  1

  0
LINE
  5
70EF
330
709B
100
AcDbEntity
  8
0
 62
     5
370
    -2
100
AcDbLine
 10
19.76171228335852
 20
35.95923996729235
 30
0.0
 11
7.997927329640907
 21
35.95923996729235
 31
0.0
  0
LINE
  5
70F0
330
709B
100
AcDbEntity
  8
0
 62
     5
370
    -2
100
AcDbLine
 10
20.76171228335851
 20
30.9592399919143
 30
0.0
 11
7.997927329640907
 21
30.9592399919143
 31
0.0
  0
LINE
  5
70F1
330
709B
100
AcDbEntity
  8
0
 62
     5
370
    -2
100
AcDbLine
 10
8.997927329640909
 20
40.95923996729236
 30
0.0
 11
8.99792732964091
 21
45.95923996729236
 31
0.0
  0
LINE
  5
70F2
330
709B
100
AcDbEntity
  8
0
 62
     5
370
    -2
100
AcDbLine
 10
8.997927329640905
 20
25.9592399919143
 30
0.0
 11
8.997927329640901
 21
12.9592399919143
 31
0.0
  0
LINE
  5
70F3
330
709B
100
AcDbEntity
  8
0
 62
     5
370
    -2
100
AcDbLine
 10
8.997927329640909
 20
35.95923996729235
 30
0.0
 11
8.997927329640909
 21
30.9592399919143
 31
0.0
  0
SOLID
  5
70F4
330
709B
100
AcDbEntity
  8
0
 62
     5
100
AcDbTrace
 10
8.164593996307575
 20
40.95923996729236
 30
0.0
 11
9.831260662974241
 21
40.95923996729236
 31
0.0
 12
8.997927329640909
 22
35.95923996729235
 32
0.0
 13
8.997927329640909
 23
35.95923996729235
 33
0.0
  0
SOLID
  5
70F5
330
709B
100
AcDbEntity
  8
0
 62
     5
100
AcDbTrace
 10
8.164593996307571
 20
25.9592399919143
 30
0.0
 11
9.831260662974241
 21
25.9592399919143
 31
0.0
 12
8.997927329640909
 22
30.9592399919143
 32
0.0
 13
8.997927329640909
 23
30.9592399919143
 33
0.0
  0
MTEXT
  5
70F6
330
709B
100
AcDbEntity
  8
0
 62
     5
100
AcDbMText
 10
6.997927329640901
 20
16.9592399919143
 30
0.0
 40
2.0
 41
0.0
 71
     5
 72
     1
  1
\A1;Min5
 11
0.0000000000000001
 21
1.0
 31
0.0
 73
     1
 44
1.0
  0
POINT
  5
70F7
330
709B
100
AcDbEntity
  8
DEFPOINTS
 62
     0
100
AcDbPoint
 10
20.76171228335851
 20
35.95923996729235
 30
0.0
  0
POINT
  5
70F8
330
709B
100
AcDbEntity
  8
DEFPOINTS
 62
     0
100
AcDbPoint
 10
21.76171228335852
 20
30.9592399919143
 30
0.0
  0
POINT
  5
70F9
330
709B
100
AcDbEntity
  8
DEFPOINTS
 62
     0
100
AcDbPoint
 10
8.997927329640909
 20
30.9592399919143
 30
0.0
  0
ENDBLK
  5
70A8
330
709B
100
AcDbEntity
  8
0
100
AcDbBlockEnd
  0
BLOCK
  5
70B5
330
70A9
100
AcDbEntity
  8
0
100
AcDbBlockBegin
  2
*D5
 70
     1
 10
0.0
 20
0.0
 30
0.0
  3
*D5
  1

  0
LINE
  5
70FA
330
70A9
100
AcDbEntity
  8
OBJECT
 62
     5
370
    -2
100
AcDbLine
 10
20.76171228335837
 20
32.64999925793584
 30
0.0
 11
20.76171228335837
 21
13.85000027844586
 31
0.0
  0
LINE
  5
70FB
330
70A9
100
AcDbEntity
  8
OBJECT
 62
     5
370
    -2
100
AcDbLine
 10
26.76171228335835
 20
32.6499992579358
 30
0.0
 11
26.76171228335835
 21
13.85000027844586
 31
0.0
  0
LINE
  5
70FC
330
70A9
100
AcDbEntity
  8
OBJECT
 62
     5
370
    -2
100
AcDbLine
 10
15.76171228335836
 20
14.85000027844586
 30
0.0
 11
10.76171228335836
 21
14.85000027844586
 31
0.0
  0
LINE
  5
70FD
330
70A9
100
AcDbEntity
  8
OBJECT
 62
     5
370
    -2
100
AcDbLine
 10
31.76171228335835
 20
14.85000027844586
 30
0.0
 11
46.16228046517654
 21
14.85000027844586
 31
0.0
  0
LINE
  5
70FE
330
70A9
100
AcDbEntity
  8
OBJECT
 62
     5
370
    -2
100
AcDbLine
 10
20.76171228335837
 20
14.85000027844586
 30
0.0
 11
26.76171228335835
 21
14.85000027844586
 31
0.0
  0
SOLID
  5
70FF
330
70A9
100
AcDbEntity
  8
OBJECT
 62
     5
100
AcDbTrace
 10
15.76171228335836
 20
15.68333361177921
 30
0.0
 11
15.76171228335836
 21
14.01666694511253
 31
0.0
 12
20.76171228335837
 22
14.85000027844586
 32
0.0
 13
20.76171228335837
 23
14.85000027844586
 33
0.0
  0
SOLID
  5
7100
330
70A9
100
AcDbEntity
  8
OBJECT
 62
     5
100
AcDbTrace
 10
31.76171228335835
 20
15.68333361177921
 30
0.0
 11
31.76171228335835
 21
14.01666694511253
 31
0.0
 12
26.76171228335835
 22
14.85000027844586
 32
0.0
 13
26.76171228335835
 23
14.85000027844586
 33
0.0
  0
MTEXT
  5
7101
330
70A9
100
AcDbEntity
  8
OBJECT
 62
     5
100
AcDbMText
 10
41.46199637426744
 20
17.4835230057186
 30
0.0
 40
2.5
 41
0.0
 71
     5
 72
     1
  1
\A1;\fMS UI Gothic|b0|i0|c128|p2;(φ6)
 73
     1
 44
1.0
  0
POINT
  5
7102
330
70A9
100
AcDbEntity
  8
DEFPOINTS
 62
     0
100
AcDbPoint
 10
20.76171228335837
 20
33.64999925793584
 30
0.0
  0
POINT
  5
7103
330
70A9
100
AcDbEntity
  8
DEFPOINTS
 62
     0
100
AcDbPoint
 10
26.76171228335835
 20
33.6499992579358
 30
0.0
  0
POINT
  5
7104
330
70A9
100
AcDbEntity
  8
DEFPOINTS
 62
     0
100
AcDbPoint
 10
26.76171228335835
 20
14.85000027844586
 30
0.0
  0
ENDBLK
  5
70B6
330
70A9
100
AcDbEntity
  8
0
100
AcDbBlockEnd
  0
BLOCK
  5
70C3
330
70B7
100
AcDbEntity
  8
0
100
AcDbBlockBegin
  2
*D6
 70
     1
 10
0.0
 20
0.0
 30
0.0
  3
*D6
  1

  0
LINE
  5
7105
330
70B7
100
AcDbEntity
  8
OBJECT
 62
     5
370
    -2
100
AcDbLine
 10
21.76171228335835
 20
26.64999928255777
 30
0.0
 11
21.76171228335835
 21
18.85000027844587
 31
0.0
  0
LINE
  5
7106
330
70B7
100
AcDbEntity
  8
OBJECT
 62
     5
370
    -2
100
AcDbLine
 10
25.76171228335835
 20
26.64999928255774
 30
0.0
 11
25.76171228335835
 21
18.85000027844587
 31
0.0
  0
LINE
  5
7107
330
70B7
100
AcDbEntity
  8
OBJECT
 62
     5
370
    -2
100
AcDbLine
 10
16.76171228335833
 20
19.85000027844587
 30
0.0
 11
11.76171228335834
 21
19.85000027844587
 31
0.0
  0
LINE
  5
7108
330
70B7
100
AcDbEntity
  8
OBJECT
 62
     5
370
    -2
100
AcDbLine
 10
30.76171228335835
 20
19.85000027844587
 30
0.0
 11
45.16228046517652
 21
19.85000027844587
 31
0.0
  0
LINE
  5
7109
330
70B7
100
AcDbEntity
  8
OBJECT
 62
     5
370
    -2
100
AcDbLine
 10
21.76171228335835
 20
19.85000027844587
 30
0.0
 11
25.76171228335835
 21
19.85000027844587
 31
0.0
  0
SOLID
  5
710A
330
70B7
100
AcDbEntity
  8
OBJECT
 62
     5
100
AcDbTrace
 10
16.76171228335833
 20
20.68333361177919
 30
0.0
 11
16.76171228335833
 21
19.01666694511254
 31
0.0
 12
21.76171228335835
 22
19.85000027844587
 32
0.0
 13
21.76171228335835
 23
19.85000027844587
 33
0.0
  0
SOLID
  5
710B
330
70B7
100
AcDbEntity
  8
OBJECT
 62
     5
100
AcDbTrace
 10
30.76171228335835
 20
20.68333361177919
 30
0.0
 11
30.76171228335835
 21
19.01666694511254
 31
0.0
 12
25.76171228335835
 22
19.85000027844587
 32
0.0
 13
25.76171228335835
 23
19.85000027844587
 33
0.0
  0
MTEXT
  5
710C
330
70B7
100
AcDbEntity
  8
OBJECT
 62
     5
100
AcDbMText
 10
40.46199637426744
 20
22.4835230057186
 30
0.0
 40
2.5
 41
0.0
 71
     5
 72
     1
  1
\A1;\fMS UI Gothic|b0|i0|c128|p2;(φ4)
 73
     1
 44
1.0
  0
POINT
  5
710D
330
70B7
100
AcDbEntity
  8
DEFPOINTS
 62
     0
100
AcDbPoint
 10
21.76171228335835
 20
27.64999928255777
 30
0.0
  0
POINT
  5
710E
330
70B7
100
AcDbEntity
  8
DEFPOINTS
 62
     0
100
AcDbPoint
 10
25.76171228335835
 20
27.64999928255774
 30
0.0
  0
POINT
  5
710F
330
70B7
100
AcDbEntity
  8
DEFPOINTS
 62
     0
100
AcDbPoint
 10
25.76171228335835
 20
19.85000027844587
 30
0.0
  0
ENDBLK
  5
70C4
330
70B7
100
AcDbEntity
  8
0
100
AcDbBlockEnd
  0
BLOCK
  5
70CF
330
70C5
100
AcDbEntity
  8
0
100
AcDbBlockBegin
  2
*D7
 70
     1
 10
0.0
 20
0.0
 30
0.0
  3
*D7
  1

  0
LINE
  5
73C0
330
70C5
100
AcDbEntity
  8
0
 62
     5
370
    -2
100
AcDbLine
 10
60.0820639841329
 20
202.6092409172154
 30
0.0
 11
60.0820639841329
 21
177.0275925009823
 31
0.0
  0
LINE
  5
73C1
330
70C5
100
AcDbEntity
  8
0
 62
     5
370
    -2
100
AcDbLine
 10
45.0820639841329
 20
202.6092409172153
 30
0.0
 11
45.0820639841329
 21
177.0275925009823
 31
0.0
  0
LINE
  5
73C2
330
70C5
100
AcDbEntity
  8
0
 62
     5
370
    -2
100
AcDbLine
 10
55.0820639841329
 20
178.0275925009823
 30
0.0
 11
50.0820639841329
 21
178.0275925009823
 31
0.0
  0
SOLID
  5
73C3
330
70C5
100
AcDbEntity
  8
0
 62
     5
100
AcDbTrace
 10
55.0820639841329
 20
178.8609258343156
 30
0.0
 11
55.0820639841329
 21
177.194259167649
 31
0.0
 12
60.0820639841329
 22
178.0275925009823
 32
0.0
 13
60.0820639841329
 23
178.0275925009823
 33
0.0
  0
SOLID
  5
73C4
330
70C5
100
AcDbEntity
  8
0
 62
     5
100
AcDbTrace
 10
50.0820639841329
 20
178.8609258343156
 30
0.0
 11
50.0820639841329
 21
177.194259167649
 31
0.0
 12
45.0820639841329
 22
178.0275925009823
 32
0.0
 13
45.0820639841329
 23
178.0275925009823
 33
0.0
  0
MTEXT
  5
73C5
330
70C5
100
AcDbEntity
  8
0
 62
     5
100
AcDbMText
 10
52.5820639841329
 20
180.2775925009823
 30
0.0
 40
2.5
 41
0.0
 71
     5
 72
     1
  1
\A1;(30)
 73
     1
 44
1.0
  0
POINT
  5
73C6
330
70C5
100
AcDbEntity
  8
DEFPOINTS
 62
     0
100
AcDbPoint
 10
60.0820639841329
 20
203.6092409172153
 30
0.0
  0
POINT
  5
73C7
330
70C5
100
AcDbEntity
  8
DEFPOINTS
 62
     0
100
AcDbPoint
 10
45.0820639841329
 20
203.6092409172153
 30
0.0
  0
POINT
  5
73C8
330
70C5
100
AcDbEntity
  8
DEFPOINTS
 62
     0
100
AcDbPoint
 10
45.0820639841329
 20
178.0275925009823
 30
0.0
  0
ENDBLK
  5
70D0
330
70C5
100
AcDbEntity
  8
0
100
AcDbBlockEnd
  0
BLOCK
  5
70DB
330
70D1
100
AcDbEntity
  8
0
100
AcDbBlockBegin
  2
*D8
 70
     1
 10
0.0
 20
0.0
 30
0.0
  3
*D8
  1

  0
LINE
  5
7119
330
70D1
100
AcDbEntity
  8
0
 62
     5
370
    -2
100
AcDbLine
 10
85.15571197490134
 20
198.4000039099946
 30
0.0
 11
85.15571197490134
 21
177.0275925009823
 31
0.0
  0
LINE
  5
711A
330
70D1
100
AcDbEntity
  8
0
 62
     5
370
    -2
100
AcDbLine
 10
60.0820639841329
 20
202.6092409172154
 30
0.0
 11
60.0820639841329
 21
177.0275925009823
 31
0.0
  0
LINE
  5
711B
330
70D1
100
AcDbEntity
  8
0
 62
     5
370
    -2
100
AcDbLine
 10
80.15571197490134
 20
178.0275925009823
 30
0.0
 11
65.0820639841329
 21
178.0275925009823
 31
0.0
  0
SOLID
  5
711C
330
70D1
100
AcDbEntity
  8
0
 62
     5
100
AcDbTrace
 10
80.15571197490134
 20
178.8609258343156
 30
0.0
 11
80.15571197490134
 21
177.194259167649
 31
0.0
 12
85.15571197490134
 22
178.0275925009823
 32
0.0
 13
85.15571197490134
 23
178.0275925009823
 33
0.0
  0
SOLID
  5
711D
330
70D1
100
AcDbEntity
  8
0
 62
     5
100
AcDbTrace
 10
65.0820639841329
 20
178.8609258343156
 30
0.0
 11
65.0820639841329
 21
177.194259167649
 31
0.0
 12
60.0820639841329
 22
178.0275925009823
 32
0.0
 13
60.0820639841329
 23
178.0275925009823
 33
0.0
  0
MTEXT
  5
711E
330
70D1
100
AcDbEntity
  8
0
 62
     5
100
AcDbMText
 10
72.61888797951712
 20
180.2775925009823
 30
0.0
 40
2.5
 41
0.0
 71
     5
 72
     1
  1
\A1;(50)
 73
     1
 44
1.0
  0
POINT
  5
711F
330
70D1
100
AcDbEntity
  8
DEFPOINTS
 62
     0
100
AcDbPoint
 10
85.15571197490134
 20
199.4000039099945
 30
0.0
  0
POINT
  5
7120
330
70D1
100
AcDbEntity
  8
DEFPOINTS
 62
     0
100
AcDbPoint
 10
60.0820639841329
 20
203.6092409172153
 30
0.0
  0
POINT
  5
7121
330
70D1
100
AcDbEntity
  8
DEFPOINTS
 62
     0
100
AcDbPoint
 10
60.0820639841329
 20
178.0275925009823
 30
0.0
  0
ENDBLK
  5
70DC
330
70D1
100
AcDbEntity
  8
0
100
AcDbBlockEnd
  0
BLOCK
  5
7181
330
7178
100
AcDbEntity
  8
0
100
AcDbBlockBegin
  2
TRANSISTOR_NPN
 70
     0
 10
0.0
 20
0.0
 30
0.0
  3
TRANSISTOR_NPN
  1

  0
LINE
  5
7179
330
7178
100
AcDbEntity
  8
0
 62
     7
100
AcDbLine
 10
9.999975000000006
 20
5.000000000000004
 30
0.0
 11
4.999975
 21
1.249999999999995
 31
0.0
  0
LINE
  5
717A
330
7178
100
AcDbEntity
  8
0
 62
     7
100
AcDbLine
 10
7.903300000000013
 20
-3.638399999999997
 30
0.0
 11
5.028825000000013
 21
-1.725825000000003
 31
0.0
  0
LINE
  5
717B
330
7178
100
AcDbEntity
  8
0
 62
     7
100
AcDbLine
 10
4.999975
 20
5.000000000000004
 30
0.0
 11
4.999975
 21
-5.000000000000004
 31
0.0
  0
LINE
  5
717C
330
7178
100
AcDbEntity
  8
0
 62
     7
100
AcDbLine
 10
0.0
 20
0.0
 30
0.0
 11
4.999975
 21
0.0
 31
0.0
  0
LINE
  5
717D
330
7178
100
AcDbEntity
  8
0
 62
     7
100
AcDbLine
 10
9.999975000000006
 20
-5.000000000000004
 30
0.0
 11
7.562899999999993
 21
-4.162575000000011
 31
0.0
  0
LINE
  5
717E
330
7178
100
AcDbEntity
  8
0
 62
     7
100
AcDbLine
 10
8.243700000000007
 20
-3.114225000000002
 30
0.0
 11
9.999975000000006
 21
-5.000000000000004
 31
0.0
  0
SOLID
  5
717F
330
7178
100
AcDbEntity
  8
0
 62
     7
100
AcDbTrace
 10
7.562899999999993
 20
-4.162575000000011
 30
0.0
 11
9.999975000000006
 21
-5.000000000000004
 31
0.0
 12
8.243700000000007
 22
-3.114225000000002
 32
0.0
 13
8.243700000000007
 23
-3.114225000000002
 33
0.0
  0
LINE
  5
7180
330
7178
100
AcDbEntity
  8
0
 62
     7
100
AcDbLine
 10
7.562899999999993
 20
-4.162575000000011
 30
0.0
 11
7.903300000000013
 21
-3.638399999999997
 31
0.0
  0
ENDBLK
  5
7182
330
7178
100
AcDbEntity
  8
0
100
AcDbBlockEnd
  0
BLOCK
  5
718A
330
7183
100
AcDbEntity
  8
0
100
AcDbBlockBegin
  2
BATTERY
 70
     0
 10
0.0
 20
0.0
 30
0.0
  3
BATTERY
  1

  0
LINE
  5
7184
330
7183
100
AcDbEntity
  8
0
 62
     7
100
AcDbLine
 10
6.875000000000007
 20
0.0
 30
0.0
 11
10.0
 21
0.0
 31
0.0
  0
LINE
  5
7185
330
7183
100
AcDbEntity
  8
0
 62
     7
100
AcDbLine
 10
4.375000000000006
 20
-2.500000000000013
 30
0.0
 11
4.375000000000006
 21
2.49999999999999
 31
0.0
  0
LINE
  5
7186
330
7183
100
AcDbEntity
  8
0
 62
     7
100
AcDbLine
 10
6.875000000000007
 20
-2.500000000000013
 30
0.0
 11
6.875000000000007
 21
2.49999999999999
 31
0.0
  0
LINE
  5
7187
330
7183
100
AcDbEntity
  8
0
 62
     7
100
AcDbLine
 10
0.0
 20
0.0
 30
0.0
 11
3.125
 21
0.0
 31
0.0
  0
LINE
  5
7188
330
7183
100
AcDbEntity
  8
0
 62
     7
100
AcDbLine
 10
3.125
 20
1.249999999999995
 30
0.0
 11
3.125
 21
-1.249999999999995
 31
0.0
  0
LINE
  5
7189
330
7183
100
AcDbEntity
  8
0
 62
     7
100
AcDbLine
 10
5.625
 20
1.249999999999995
 30
0.0
 11
5.625
 21
-1.249999999999995
 31
0.0
  0
ENDBLK
  5
718B
330
7183
100
AcDbEntity
  8
0
100
AcDbBlockEnd
  0
BLOCK
  5
7241
330
7237
100
AcDbEntity
  8
0
100
AcDbBlockBegin
  2
*D11
 70
     1
 10
0.0
 20
0.0
 30
0.0
  3
*D11
  1

  0
LINE
  5
739B
330
7237
100
AcDbEntity
  8
OBJECT
 62
     5
370
    -2
100
AcDbLine
 10
22.68319562169244
 20
46.45851213783783
 30
0.0
 11
10.72080993745476
 21
46.45851213783783
 31
0.0
  0
LINE
  5
739C
330
7237
100
AcDbEntity
  8
OBJECT
 62
     5
370
    -2
100
AcDbLine
 10
20.76171228335816
 20
156.0079005566397
 30
0.0
 11
10.72080993745478
 21
156.0079005566397
 31
0.0
  0
LINE
  5
739D
330
7237
100
AcDbEntity
  8
OBJECT
 62
     5
370
    -2
100
AcDbLine
 10
11.72080993745476
 20
51.45851213783783
 30
0.0
 11
11.72080993745477
 21
151.0079005566397
 31
0.0
  0
SOLID
  5
739E
330
7237
100
AcDbEntity
  8
OBJECT
 62
     5
100
AcDbTrace
 10
10.88747660412143
 20
51.45851213783783
 30
0.0
 11
12.5541432707881
 21
51.45851213783783
 31
0.0
 12
11.72080993745476
 22
46.45851213783783
 32
0.0
 13
11.72080993745476
 23
46.45851213783783
 33
0.0
  0
SOLID
  5
739F
330
7237
100
AcDbEntity
  8
OBJECT
 62
     5
100
AcDbTrace
 10
10.88747660412144
 20
151.0079005566397
 30
0.0
 11
12.55414327078812
 21
151.0079005566397
 31
0.0
 12
11.72080993745478
 22
156.0079005566397
 32
0.0
 13
11.72080993745478
 23
156.0079005566397
 33
0.0
  0
MTEXT
  5
73A0
330
7237
100
AcDbEntity
  8
OBJECT
 62
     5
100
AcDbMText
 10
9.47080993745476
 20
97.22331933881028
 30
0.0
 40
2.5
 41
0.0
 71
     5
 72
     1
  1
\A1;175
 11
0.0000000000000001
 21
1.0
 31
0.0
 73
     1
 44
1.0
  0
POINT
  5
73A1
330
7237
100
AcDbEntity
  8
DEFPOINTS
 62
     0
100
AcDbPoint
 10
23.68319562169244
 20
46.45851213783783
 30
0.0
  0
POINT
  5
73A2
330
7237
100
AcDbEntity
  8
DEFPOINTS
 62
     0
100
AcDbPoint
 10
21.76171228335815
 20
156.0079005566397
 30
0.0
  0
POINT
  5
73A3
330
7237
100
AcDbEntity
  8
DEFPOINTS
 62
     0
100
AcDbPoint
 10
11.72080993745478
 20
156.0079005566397
 30
0.0
  0
ENDBLK
  5
7242
330
7237
100
AcDbEntity
  8
0
100
AcDbBlockEnd
  0
BLOCK
  5
7268
330
7260
100
AcDbEntity
  8
0
100
AcDbBlockBegin
  2
*D12
 70
     1
 10
0.0
 20
0.0
 30
0.0
  3
*D12
  1

  0
LINE
  5
74A8
330
7260
100
AcDbEntity
  8
OBJECT
 62
     5
370
    -2
100
AcDbLine
 10
20.76171228335727
 20
137.2589072894062
 30
0.0
 11
20.76171228335727
 21
138.5027133080718
 31
0.0
  0
LINE
  5
74A9
330
7260
100
AcDbEntity
  8
OBJECT
 62
     5
370
    -2
100
AcDbLine
 10
26.76171228335803
 20
137.2589072894062
 30
0.0
 11
26.76171228335803
 21
138.5027133080718
 31
0.0
  0
LINE
  5
74AA
330
7260
100
AcDbEntity
  8
OBJECT
 62
     5
370
    -2
100
AcDbLine
 10
15.76171228335726
 20
137.5027133080718
 30
0.0
 11
10.76171228335726
 21
137.5027133080718
 31
0.0
  0
LINE
  5
74AB
330
7260
100
AcDbEntity
  8
OBJECT
 62
     5
370
    -2
100
AcDbLine
 10
31.76171228335803
 20
137.5027133080718
 30
0.0
 11
43.89988075331161
 21
137.5027133080718
 31
0.0
  0
LINE
  5
74AC
330
7260
100
AcDbEntity
  8
OBJECT
 62
     5
370
    -2
100
AcDbLine
 10
20.76171228335727
 20
137.5027133080718
 30
0.0
 11
26.76171228335803
 21
137.5027133080718
 31
0.0
  0
SOLID
  5
74AD
330
7260
100
AcDbEntity
  8
OBJECT
 62
     5
100
AcDbTrace
 10
15.76171228335726
 20
138.336046641405
 30
0.0
 11
15.76171228335726
 21
136.6693799747384
 31
0.0
 12
20.76171228335727
 22
137.5027133080718
 32
0.0
 13
20.76171228335727
 23
137.5027133080718
 33
0.0
  0
SOLID
  5
74AE
330
7260
100
AcDbEntity
  8
OBJECT
 62
     5
100
AcDbTrace
 10
31.76171228335803
 20
138.336046641405
 30
0.0
 11
31.76171228335803
 21
136.6693799747384
 31
0.0
 12
26.76171228335803
 22
137.5027133080718
 32
0.0
 13
26.76171228335803
 23
137.5027133080718
 33
0.0
  0
MTEXT
  5
74AF
330
7260
100
AcDbEntity
  8
OBJECT
 62
     5
100
AcDbMText
 10
42.06654741997829
 20
139.7527133080717
 30
0.0
 40
2.5
 41
0.0
 71
     5
 72
     1
  1
\A1;6
 73
     1
 44
1.0
  0
POINT
  5
74B0
330
7260
100
AcDbEntity
  8
DEFPOINTS
 62
     0
100
AcDbPoint
 10
20.76171228335727
 20
136.2589072894062
 30
0.0
  0
POINT
  5
74B1
330
7260
100
AcDbEntity
  8
DEFPOINTS
 62
     0
100
AcDbPoint
 10
26.76171228335803
 20
136.2589072894062
 30
0.0
  0
POINT
  5
74B2
330
7260
100
AcDbEntity
  8
DEFPOINTS
 62
     0
100
AcDbPoint
 10
26.76171228335803
 20
137.5027133080718
 30
0.0
  0
ENDBLK
  5
7269
330
7260
100
AcDbEntity
  8
0
100
AcDbBlockEnd
  0
BLOCK
  5
72C1
330
72B7
100
AcDbEntity
  8
0
100
AcDbBlockBegin
  2
*D13
 70
     1
 10
0.0
 20
0.0
 30
0.0
  3
*D13
  1

  0
LINE
  5
72D5
330
72B7
100
AcDbEntity
  8
OBJECT
 62
     5
370
    -2
100
AcDbLine
 10
21.68319562169244
 20
46.45851213783783
 30
0.0
 11
15.68075274007967
 21
46.45851213783783
 31
0.0
  0
LINE
  5
72D6
330
72B7
100
AcDbEntity
  8
OBJECT
 62
     5
370
    -2
100
AcDbLine
 10
19.76171228335727
 20
126.8917647288853
 30
0.0
 11
15.68075274007968
 21
126.8917647288853
 31
0.0
  0
LINE
  5
72D7
330
72B7
100
AcDbEntity
  8
OBJECT
 62
     5
370
    -2
100
AcDbLine
 10
16.68075274007968
 20
51.45851213783783
 30
0.0
 11
16.68075274007969
 21
121.8917647288852
 31
0.0
  0
SOLID
  5
72D8
330
72B7
100
AcDbEntity
  8
OBJECT
 62
     5
100
AcDbTrace
 10
15.84741940674634
 20
51.45851213783783
 30
0.0
 11
17.514086073413
 21
51.45851213783783
 31
0.0
 12
16.68075274007968
 22
46.45851213783783
 32
0.0
 13
16.68075274007968
 23
46.45851213783783
 33
0.0
  0
SOLID
  5
72D9
330
72B7
100
AcDbEntity
  8
OBJECT
 62
     5
100
AcDbTrace
 10
15.84741940674636
 20
121.8917647288852
 30
0.0
 11
17.51408607341303
 21
121.8917647288852
 31
0.0
 12
16.68075274007969
 22
126.8917647288853
 32
0.0
 13
16.68075274007969
 23
126.8917647288853
 33
0.0
  0
MTEXT
  5
72DA
330
72B7
100
AcDbEntity
  8
OBJECT
 62
     5
100
AcDbMText
 10
14.43075274007967
 20
86.67513843336161
 30
0.0
 40
2.5
 41
0.0
 71
     5
 72
     1
  1
\A1;55
 11
0.0000000000000001
 21
1.0
 31
0.0
 73
     1
 44
1.0
  0
POINT
  5
72DB
330
72B7
100
AcDbEntity
  8
DEFPOINTS
 62
     0
100
AcDbPoint
 10
22.68319562169244
 20
46.45851213783783
 30
0.0
  0
POINT
  5
72DC
330
72B7
100
AcDbEntity
  8
DEFPOINTS
 62
     0
100
AcDbPoint
 10
20.76171228335727
 20
126.8917647288853
 30
0.0
  0
POINT
  5
72DD
330
72B7
100
AcDbEntity
  8
DEFPOINTS
 62
     0
100
AcDbPoint
 10
16.68075274007969
 20
126.8917647288853
 30
0.0
  0
ENDBLK
  5
72C2
330
72B7
100
AcDbEntity
  8
0
100
AcDbBlockEnd
  0
BLOCK
  5
774E
330
7744
100
AcDbEntity
  8
0
100
AcDbBlockBegin
  2
*D15
 70
     1
 10
0.0
 20
0.0
 30
0.0
  3
*D15
  1

  0
LINE
  5
77B8
330
7744
100
AcDbEntity
  8
OBJECT
 62
     5
370
    -2
100
AcDbLine
 10
420.4381020252358
 20
42.69349012939289
 30
0.0
 11
414.4356591436229
 21
42.69349012939289
 31
0.0
  0
LINE
  5
77B9
330
7744
100
AcDbEntity
  8
OBJECT
 62
     5
370
    -2
100
AcDbLine
 10
418.5166186869006
 20
123.1267427204403
 30
0.0
 11
414.4356591436229
 21
123.1267427204403
 31
0.0
  0
LINE
  5
77BA
330
7744
100
AcDbEntity
  8
OBJECT
 62
     5
370
    -2
100
AcDbLine
 10
415.4356591436229
 20
47.69349012939289
 30
0.0
 11
415.4356591436229
 21
118.1267427204404
 31
0.0
  0
SOLID
  5
77BB
330
7744
100
AcDbEntity
  8
OBJECT
 62
     5
100
AcDbTrace
 10
414.6023258102896
 20
47.69349012939289
 30
0.0
 11
416.2689924769564
 21
47.69349012939289
 31
0.0
 12
415.4356591436229
 22
42.69349012939289
 32
0.0
 13
415.4356591436229
 23
42.69349012939289
 33
0.0
  0
SOLID
  5
77BC
330
7744
100
AcDbEntity
  8
OBJECT
 62
     5
100
AcDbTrace
 10
414.6023258102896
 20
118.1267427204404
 30
0.0
 11
416.2689924769564
 21
118.1267427204404
 31
0.0
 12
415.4356591436229
 22
123.1267427204403
 32
0.0
 13
415.4356591436229
 23
123.1267427204403
 33
0.0
  0
MTEXT
  5
77BD
330
7744
100
AcDbEntity
  8
OBJECT
 62
     5
100
AcDbMText
 10
413.1856591436229
 20
82.91011642491675
 30
0.0
 40
2.5
 41
0.0
 71
     5
 72
     1
  1
\A1;55
 11
0.0000000000000001
 21
1.0
 31
0.0
 73
     1
 44
1.0
  0
POINT
  5
77BE
330
7744
100
AcDbEntity
  8
DEFPOINTS
 62
     0
100
AcDbPoint
 10
421.4381020252358
 20
42.69349012939289
 30
0.0
  0
POINT
  5
77BF
330
7744
100
AcDbEntity
  8
DEFPOINTS
 62
     0
100
AcDbPoint
 10
419.5166186869006
 20
123.1267427204403
 30
0.0
  0
POINT
  5
77C0
330
7744
100
AcDbEntity
  8
DEFPOINTS
 62
     0
100
AcDbPoint
 10
415.4356591436229
 20
123.1267427204403
 30
0.0
  0
ENDBLK
  5
774F
330
7744
100
AcDbEntity
  8
0
100
AcDbBlockEnd
  0
BLOCK
  5
775C
330
7750
100
AcDbEntity
  8
0
100
AcDbBlockBegin
  2
*D16
 70
     1
 10
0.0
 20
0.0
 30
0.0
  3
*D16
  1

  0
LINE
  5
77C1
330
7750
100
AcDbEntity
  8
OBJECT
 62
     5
370
    -2
100
AcDbLine
 10
419.5166186869006
 20
133.4938852809613
 30
0.0
 11
419.5166186869006
 21
134.7376912996269
 31
0.0
  0
LINE
  5
77C2
330
7750
100
AcDbEntity
  8
OBJECT
 62
     5
370
    -2
100
AcDbLine
 10
425.5166186869013
 20
133.4938852809613
 30
0.0
 11
425.5166186869013
 21
134.7376912996269
 31
0.0
  0
LINE
  5
77C3
330
7750
100
AcDbEntity
  8
OBJECT
 62
     5
370
    -2
100
AcDbLine
 10
414.5166186869006
 20
133.7376912996269
 30
0.0
 11
409.5166186869006
 21
133.7376912996269
 31
0.0
  0
LINE
  5
77C4
330
7750
100
AcDbEntity
  8
OBJECT
 62
     5
370
    -2
100
AcDbLine
 10
430.5166186869014
 20
133.7376912996269
 30
0.0
 11
442.654787156855
 21
133.7376912996269
 31
0.0
  0
LINE
  5
77C5
330
7750
100
AcDbEntity
  8
OBJECT
 62
     5
370
    -2
100
AcDbLine
 10
419.5166186869006
 20
133.7376912996269
 30
0.0
 11
425.5166186869013
 21
133.7376912996269
 31
0.0
  0
SOLID
  5
77C6
330
7750
100
AcDbEntity
  8
OBJECT
 62
     5
100
AcDbTrace
 10
414.5166186869006
 20
134.5710246329602
 30
0.0
 11
414.5166186869006
 21
132.9043579662934
 31
0.0
 12
419.5166186869006
 22
133.7376912996269
 32
0.0
 13
419.5166186869006
 23
133.7376912996269
 33
0.0
  0
SOLID
  5
77C7
330
7750
100
AcDbEntity
  8
OBJECT
 62
     5
100
AcDbTrace
 10
430.5166186869014
 20
134.5710246329602
 30
0.0
 11
430.5166186869014
 21
132.9043579662934
 31
0.0
 12
425.5166186869013
 22
133.7376912996269
 32
0.0
 13
425.5166186869013
 23
133.7376912996269
 33
0.0
  0
MTEXT
  5
77C8
330
7750
100
AcDbEntity
  8
OBJECT
 62
     5
100
AcDbMText
 10
440.8214538235216
 20
135.9876912996269
 30
0.0
 40
2.5
 41
0.0
 71
     5
 72
     1
  1
\A1;6
 73
     1
 44
1.0
  0
POINT
  5
77C9
330
7750
100
AcDbEntity
  8
DEFPOINTS
 62
     0
100
AcDbPoint
 10
419.5166186869006
 20
132.4938852809613
 30
0.0
  0
POINT
  5
77CA
330
7750
100
AcDbEntity
  8
DEFPOINTS
 62
     0
100
AcDbPoint
 10
425.5166186869013
 20
132.4938852809613
 30
0.0
  0
POINT
  5
77CB
330
7750
100
AcDbEntity
  8
DEFPOINTS
 62
     0
100
AcDbPoint
 10
425.5166186869013
 20
133.7376912996269
 30
0.0
  0
ENDBLK
  5
775D
330
7750
100
AcDbEntity
  8
0
100
AcDbBlockEnd
  0
BLOCK
  5
7768
330
775E
100
AcDbEntity
  8
0
100
AcDbBlockBegin
  2
*D17
 70
     1
 10
0.0
 20
0.0
 30
0.0
  3
*D17
  1

  0
LINE
  5
77CC
330
775E
100
AcDbEntity
  8
OBJECT
 62
     5
370
    -2
100
AcDbLine
 10
421.4381020252358
 20
42.69349012939289
 30
0.0
 11
409.4757163409981
 21
42.69349012939289
 31
0.0
  0
LINE
  5
77CD
330
775E
100
AcDbEntity
  8
OBJECT
 62
     5
370
    -2
100
AcDbLine
 10
419.5166186869014
 20
152.2428785481946
 30
0.0
 11
409.4757163409981
 21
152.2428785481946
 31
0.0
  0
LINE
  5
77CE
330
775E
100
AcDbEntity
  8
OBJECT
 62
     5
370
    -2
100
AcDbLine
 10
410.4757163409981
 20
47.69349012939289
 30
0.0
 11
410.4757163409981
 21
147.2428785481946
 31
0.0
  0
SOLID
  5
77CF
330
775E
100
AcDbEntity
  8
OBJECT
 62
     5
100
AcDbTrace
 10
409.6423830076648
 20
47.69349012939289
 30
0.0
 11
411.3090496743313
 21
47.69349012939289
 31
0.0
 12
410.4757163409981
 22
42.69349012939289
 32
0.0
 13
410.4757163409981
 23
42.69349012939289
 33
0.0
  0
SOLID
  5
77D0
330
775E
100
AcDbEntity
  8
OBJECT
 62
     5
100
AcDbTrace
 10
409.6423830076648
 20
147.2428785481946
 30
0.0
 11
411.3090496743315
 21
147.2428785481946
 31
0.0
 12
410.4757163409981
 22
152.2428785481946
 32
0.0
 13
410.4757163409981
 23
152.2428785481946
 33
0.0
  0
MTEXT
  5
77D1
330
775E
100
AcDbEntity
  8
OBJECT
 62
     5
100
AcDbMText
 10
408.2257163409981
 20
93.45829733036536
 30
0.0
 40
2.5
 41
0.0
 71
     5
 72
     1
  1
\A1;175
 11
0.0000000000000001
 21
1.0
 31
0.0
 73
     1
 44
1.0
  0
POINT
  5
77D2
330
775E
100
AcDbEntity
  8
DEFPOINTS
 62
     0
100
AcDbPoint
 10
422.4381020252358
 20
42.69349012939289
 30
0.0
  0
POINT
  5
77D3
330
775E
100
AcDbEntity
  8
DEFPOINTS
 62
     0
100
AcDbPoint
 10
420.5166186869014
 20
152.2428785481946
 30
0.0
  0
POINT
  5
77D4
330
775E
100
AcDbEntity
  8
DEFPOINTS
 62
     0
100
AcDbPoint
 10
410.4757163409981
 20
152.2428785481946
 30
0.0
  0
ENDBLK
  5
7769
330
775E
100
AcDbEntity
  8
0
100
AcDbBlockEnd
  0
BLOCK
  5
7774
330
776A
100
AcDbEntity
  8
0
100
AcDbBlockBegin
  2
*D18
 70
     1
 10
0.0
 20
0.0
 30
0.0
  3
*D18
  1

  0
LINE
  5
77D5
330
776A
100
AcDbEntity
  8
0
 62
     5
370
    -2
100
AcDbLine
 10
483.9106183784446
 20
194.6349819015496
 30
0.0
 11
483.9106183784446
 21
173.2625704925375
 31
0.0
  0
LINE
  5
77D6
330
776A
100
AcDbEntity
  8
0
 62
     5
370
    -2
100
AcDbLine
 10
458.8369703876763
 20
198.8442189087704
 30
0.0
 11
458.8369703876763
 21
173.2625704925375
 31
0.0
  0
LINE
  5
77D7
330
776A
100
AcDbEntity
  8
0
 62
     5
370
    -2
100
AcDbLine
 10
478.9106183784446
 20
174.2625704925375
 30
0.0
 11
463.8369703876763
 21
174.2625704925375
 31
0.0
  0
SOLID
  5
77D8
330
776A
100
AcDbEntity
  8
0
 62
     5
100
AcDbTrace
 10
478.9106183784446
 20
175.0959038258708
 30
0.0
 11
478.9106183784446
 21
173.429237159204
 31
0.0
 12
483.9106183784446
 22
174.2625704925375
 32
0.0
 13
483.9106183784446
 23
174.2625704925375
 33
0.0
  0
SOLID
  5
77D9
330
776A
100
AcDbEntity
  8
0
 62
     5
100
AcDbTrace
 10
463.8369703876763
 20
175.0959038258708
 30
0.0
 11
463.8369703876763
 21
173.429237159204
 31
0.0
 12
458.8369703876763
 22
174.2625704925375
 32
0.0
 13
458.8369703876763
 23
174.2625704925375
 33
0.0
  0
MTEXT
  5
77DA
330
776A
100
AcDbEntity
  8
0
 62
     5
100
AcDbMText
 10
471.3737943830603
 20
176.5125704925375
 30
0.0
 40
2.5
 41
0.0
 71
     5
 72
     1
  1
\A1;(50)
 73
     1
 44
1.0
  0
POINT
  5
77DB
330
776A
100
AcDbEntity
  8
DEFPOINTS
 62
     0
100
AcDbPoint
 10
483.9106183784446
 20
195.6349819015496
 30
0.0
  0
POINT
  5
77DC
330
776A
100
AcDbEntity
  8
DEFPOINTS
 62
     0
100
AcDbPoint
 10
458.8369703876763
 20
199.8442189087704
 30
0.0
  0
POINT
  5
77DD
330
776A
100
AcDbEntity
  8
DEFPOINTS
 62
     0
100
AcDbPoint
 10
458.8369703876763
 20
174.2625704925375
 30
0.0
  0
ENDBLK
  5
7775
330
776A
100
AcDbEntity
  8
0
100
AcDbBlockEnd
  0
BLOCK
  5
7780
330
7776
100
AcDbEntity
  8
0
100
AcDbBlockBegin
  2
*D19
 70
     1
 10
0.0
 20
0.0
 30
0.0
  3
*D19
  1

  0
LINE
  5
77DE
330
7776
100
AcDbEntity
  8
0
 62
     5
370
    -2
100
AcDbLine
 10
458.8369703876763
 20
198.8442189087704
 30
0.0
 11
458.8369703876763
 21
173.2625704925375
 31
0.0
  0
LINE
  5
77DF
330
7776
100
AcDbEntity
  8
0
 62
     5
370
    -2
100
AcDbLine
 10
443.8369703876761
 20
198.8442189087704
 30
0.0
 11
443.8369703876761
 21
173.2625704925375
 31
0.0
  0
LINE
  5
77E0
330
7776
100
AcDbEntity
  8
0
 62
     5
370
    -2
100
AcDbLine
 10
453.8369703876761
 20
174.2625704925375
 30
0.0
 11
448.8369703876761
 21
174.2625704925375
 31
0.0
  0
SOLID
  5
77E1
330
7776
100
AcDbEntity
  8
0
 62
     5
100
AcDbTrace
 10
453.8369703876761
 20
175.0959038258708
 30
0.0
 11
453.8369703876761
 21
173.429237159204
 31
0.0
 12
458.8369703876763
 22
174.2625704925375
 32
0.0
 13
458.8369703876763
 23
174.2625704925375
 33
0.0
  0
SOLID
  5
77E2
330
7776
100
AcDbEntity
  8
0
 62
     5
100
AcDbTrace
 10
448.8369703876761
 20
175.0959038258708
 30
0.0
 11
448.8369703876761
 21
173.429237159204
 31
0.0
 12
443.8369703876761
 22
174.2625704925375
 32
0.0
 13
443.8369703876761
 23
174.2625704925375
 33
0.0
  0
MTEXT
  5
77E3
330
7776
100
AcDbEntity
  8
0
 62
     5
100
AcDbMText
 10
451.3369703876763
 20
176.5125704925375
 30
0.0
 40
2.5
 41
0.0
 71
     5
 72
     1
  1
\A1;(30)
 73
     1
 44
1.0
  0
POINT
  5
77E4
330
7776
100
AcDbEntity
  8
DEFPOINTS
 62
     0
100
AcDbPoint
 10
458.8369703876763
 20
199.8442189087704
 30
0.0
  0
POINT
  5
77E5
330
7776
100
AcDbEntity
  8
DEFPOINTS
 62
     0
100
AcDbPoint
 10
443.8369703876761
 20
199.8442189087704
 30
0.0
  0
POINT
  5
77E6
330
7776
100
AcDbEntity
  8
DEFPOINTS
 62
     0
100
AcDbPoint
 10
443.8369703876761
 20
174.2625704925375
 30
0.0
  0
ENDBLK
  5
7781
330
7776
100
AcDbEntity
  8
0
100
AcDbBlockEnd
  0
BLOCK
  5
778E
330
7782
100
AcDbEntity
  8
0
100
AcDbBlockBegin
  2
*D20
 70
     1
 10
0.0
 20
0.0
 30
0.0
  3
*D20
  1

  0
LINE
  5
77E7
330
7782
100
AcDbEntity
  8
OBJECT
 62
     5
370
    -2
100
AcDbLine
 10
420.5166186869017
 20
22.88497727411284
 30
0.0
 11
420.5166186869017
 21
15.08497827000093
 31
0.0
  0
LINE
  5
77E8
330
7782
100
AcDbEntity
  8
OBJECT
 62
     5
370
    -2
100
AcDbLine
 10
424.5166186869017
 20
22.8849772741128
 30
0.0
 11
424.5166186869017
 21
15.08497827000093
 31
0.0
  0
LINE
  5
77E9
330
7782
100
AcDbEntity
  8
OBJECT
 62
     5
370
    -2
100
AcDbLine
 10
415.5166186869017
 20
16.08497827000094
 30
0.0
 11
410.5166186869017
 21
16.08497827000094
 31
0.0
  0
LINE
  5
77EA
330
7782
100
AcDbEntity
  8
OBJECT
 62
     5
370
    -2
100
AcDbLine
 10
429.5166186869017
 20
16.08497827000094
 30
0.0
 11
443.9171868687198
 21
16.08497827000094
 31
0.0
  0
LINE
  5
77EB
330
7782
100
AcDbEntity
  8
OBJECT
 62
     5
370
    -2
100
AcDbLine
 10
420.5166186869017
 20
16.08497827000094
 30
0.0
 11
424.5166186869017
 21
16.08497827000094
 31
0.0
  0
SOLID
  5
77EC
330
7782
100
AcDbEntity
  8
OBJECT
 62
     5
100
AcDbTrace
 10
415.5166186869017
 20
16.91831160333427
 30
0.0
 11
415.5166186869017
 21
15.2516449366676
 31
0.0
 12
420.5166186869017
 22
16.08497827000094
 32
0.0
 13
420.5166186869017
 23
16.08497827000094
 33
0.0
  0
SOLID
  5
77ED
330
7782
100
AcDbEntity
  8
OBJECT
 62
     5
100
AcDbTrace
 10
429.5166186869017
 20
16.91831160333427
 30
0.0
 11
429.5166186869017
 21
15.2516449366676
 31
0.0
 12
424.5166186869017
 22
16.08497827000094
 32
0.0
 13
424.5166186869017
 23
16.08497827000094
 33
0.0
  0
MTEXT
  5
77EE
330
7782
100
AcDbEntity
  8
OBJECT
 62
     5
100
AcDbMText
 10
439.2169027778106
 20
18.71850099727367
 30
0.0
 40
2.5
 41
0.0
 71
     5
 72
     1
  1
\A1;\fMS UI Gothic|b0|i0|c128|p2;(φ4)
 73
     1
 44
1.0
  0
POINT
  5
77EF
330
7782
100
AcDbEntity
  8
DEFPOINTS
 62
     0
100
AcDbPoint
 10
420.5166186869017
 20
23.88497727411283
 30
0.0
  0
POINT
  5
77F0
330
7782
100
AcDbEntity
  8
DEFPOINTS
 62
     0
100
AcDbPoint
 10
424.5166186869017
 20
23.8849772741128
 30
0.0
  0
POINT
  5
77F1
330
7782
100
AcDbEntity
  8
DEFPOINTS
 62
     0
100
AcDbPoint
 10
424.5166186869017
 20
16.08497827000094
 30
0.0
  0
ENDBLK
  5
778F
330
7782
100
AcDbEntity
  8
0
100
AcDbBlockEnd
  0
BLOCK
  5
779C
330
7790
100
AcDbEntity
  8
0
100
AcDbBlockBegin
  2
*D21
 70
     1
 10
0.0
 20
0.0
 30
0.0
  3
*D21
  1

  0
LINE
  5
77F2
330
7790
100
AcDbEntity
  8
OBJECT
 62
     5
370
    -2
100
AcDbLine
 10
419.5166186869017
 20
28.88497724949091
 30
0.0
 11
419.5166186869017
 21
10.08497827000093
 31
0.0
  0
LINE
  5
77F3
330
7790
100
AcDbEntity
  8
OBJECT
 62
     5
370
    -2
100
AcDbLine
 10
425.5166186869017
 20
28.88497724949086
 30
0.0
 11
425.5166186869017
 21
10.08497827000093
 31
0.0
  0
LINE
  5
77F4
330
7790
100
AcDbEntity
  8
OBJECT
 62
     5
370
    -2
100
AcDbLine
 10
414.5166186869017
 20
11.08497827000093
 30
0.0
 11
409.5166186869017
 21
11.08497827000093
 31
0.0
  0
LINE
  5
77F5
330
7790
100
AcDbEntity
  8
OBJECT
 62
     5
370
    -2
100
AcDbLine
 10
430.5166186869016
 20
11.08497827000093
 30
0.0
 11
444.9171868687198
 21
11.08497827000093
 31
0.0
  0
LINE
  5
77F6
330
7790
100
AcDbEntity
  8
OBJECT
 62
     5
370
    -2
100
AcDbLine
 10
419.5166186869017
 20
11.08497827000093
 30
0.0
 11
425.5166186869017
 21
11.08497827000093
 31
0.0
  0
SOLID
  5
77F7
330
7790
100
AcDbEntity
  8
OBJECT
 62
     5
100
AcDbTrace
 10
414.5166186869017
 20
11.91831160333426
 30
0.0
 11
414.5166186869017
 21
10.2516449366676
 31
0.0
 12
419.5166186869017
 22
11.08497827000093
 32
0.0
 13
419.5166186869017
 23
11.08497827000093
 33
0.0
  0
SOLID
  5
77F8
330
7790
100
AcDbEntity
  8
OBJECT
 62
     5
100
AcDbTrace
 10
430.5166186869016
 20
11.91831160333426
 30
0.0
 11
430.5166186869016
 21
10.2516449366676
 31
0.0
 12
425.5166186869017
 22
11.08497827000093
 32
0.0
 13
425.5166186869017
 23
11.08497827000093
 33
0.0
  0
MTEXT
  5
77F9
330
7790
100
AcDbEntity
  8
OBJECT
 62
     5
100
AcDbMText
 10
440.2169027778106
 20
13.71850099727367
 30
0.0
 40
2.5
 41
0.0
 71
     5
 72
     1
  1
\A1;\fMS UI Gothic|b0|i0|c128|p2;(φ6)
 73
     1
 44
1.0
  0
POINT
  5
77FA
330
7790
100
AcDbEntity
  8
DEFPOINTS
 62
     0
100
AcDbPoint
 10
419.5166186869017
 20
29.88497724949091
 30
0.0
  0
POINT
  5
77FB
330
7790
100
AcDbEntity
  8
DEFPOINTS
 62
     0
100
AcDbPoint
 10
425.5166186869017
 20
29.88497724949087
 30
0.0
  0
POINT
  5
77FC
330
7790
100
AcDbEntity
  8
DEFPOINTS
 62
     0
100
AcDbPoint
 10
425.5166186869017
 20
11.08497827000093
 30
0.0
  0
ENDBLK
  5
779D
330
7790
100
AcDbEntity
  8
0
100
AcDbBlockEnd
  0
BLOCK
  5
77AA
330
779E
100
AcDbEntity
  8
0
100
AcDbBlockBegin
  2
*D22
 70
     1
 10
0.0
 20
0.0
 30
0.0
  3
*D22
  1

  0
LINE
  5
77FD
330
779E
100
AcDbEntity
  8
0
 62
     5
370
    -2
100
AcDbLine
 10
418.5166186869017
 20
32.19421795884741
 30
0.0
 11
406.7528337331841
 21
32.19421795884741
 31
0.0
  0
LINE
  5
77FE
330
779E
100
AcDbEntity
  8
0
 62
     5
370
    -2
100
AcDbLine
 10
419.5166186869018
 20
27.19421798346937
 30
0.0
 11
406.7528337331841
 21
27.19421798346937
 31
0.0
  0
LINE
  5
77FF
330
779E
100
AcDbEntity
  8
0
 62
     5
370
    -2
100
AcDbLine
 10
407.7528337331842
 20
37.19421795884741
 30
0.0
 11
407.7528337331842
 21
42.1942179588474
 31
0.0
  0
LINE
  5
7800
330
779E
100
AcDbEntity
  8
0
 62
     5
370
    -2
100
AcDbLine
 10
407.7528337331842
 20
22.19421798346937
 30
0.0
 11
407.7528337331842
 21
9.194217983469306
 31
0.0
  0
LINE
  5
7801
330
779E
100
AcDbEntity
  8
0
 62
     5
370
    -2
100
AcDbLine
 10
407.7528337331842
 20
32.19421795884741
 30
0.0
 11
407.7528337331842
 21
27.19421798346937
 31
0.0
  0
SOLID
  5
7802
330
779E
100
AcDbEntity
  8
0
 62
     5
100
AcDbTrace
 10
406.9195003998508
 20
37.19421795884741
 30
0.0
 11
408.5861670665176
 21
37.19421795884741
 31
0.0
 12
407.7528337331842
 22
32.19421795884741
 32
0.0
 13
407.7528337331842
 23
32.19421795884741
 33
0.0
  0
SOLID
  5
7803
330
779E
100
AcDbEntity
  8
0
 62
     5
100
AcDbTrace
 10
406.9195003998508
 20
22.19421798346937
 30
0.0
 11
408.5861670665176
 21
22.19421798346937
 31
0.0
 12
407.7528337331842
 22
27.19421798346937
 32
0.0
 13
407.7528337331842
 23
27.19421798346937
 33
0.0
  0
MTEXT
  5
7804
330
779E
100
AcDbEntity
  8
0
 62
     5
100
AcDbMText
 10
405.7528337331842
 20
13.19421798346937
 30
0.0
 40
2.0
 41
0.0
 71
     5
 72
     1
  1
\A1;Min5
 11
0.0000000000000001
 21
1.0
 31
0.0
 73
     1
 44
1.0
  0
POINT
  5
7805
330
779E
100
AcDbEntity
  8
DEFPOINTS
 62
     0
100
AcDbPoint
 10
419.5166186869018
 20
32.19421795884741
 30
0.0
  0
POINT
  5
7806
330
779E
100
AcDbEntity
  8
DEFPOINTS
 62
     0
100
AcDbPoint
 10
420.5166186869018
 20
27.19421798346937
 30
0.0
  0
POINT
  5
7807
330
779E
100
AcDbEntity
  8
DEFPOINTS
 62
     0
100
AcDbPoint
 10
407.7528337331842
 20
27.19421798346937
 30
0.0
  0
ENDBLK
  5
77AB
330
779E
100
AcDbEntity
  8
0
100
AcDbBlockEnd
  0
BLOCK
  5
77B6
330
77AC
100
AcDbEntity
  8
0
100
AcDbBlockBegin
  2
*D23
 70
     1
 10
0.0
 20
0.0
 30
0.0
  3
*D23
  1

  0
LINE
  5
7808
330
77AC
100
AcDbEntity
  8
0
 62
     5
370
    -2
100
AcDbLine
 10
431.6166194177736
 20
42.69421795094773
 30
0.0
 11
443.6893777076643
 21
42.69421795094771
 31
0.0
  0
LINE
  5
7809
330
77AC
100
AcDbEntity
  8
0
 62
     5
370
    -2
100
AcDbLine
 10
425.5166186869018
 20
27.19421798346933
 30
0.0
 11
443.6893777076643
 21
27.19421798346933
 31
0.0
  0
LINE
  5
780A
330
77AC
100
AcDbEntity
  8
0
 62
     5
370
    -2
100
AcDbLine
 10
442.6893777076643
 20
39.69421795094771
 30
0.0
 11
442.6893777076643
 21
30.19421798346934
 31
0.0
  0
SOLID
  5
780B
330
77AC
100
AcDbEntity
  8
0
 62
     5
100
AcDbTrace
 10
442.1893777076643
 20
39.69421795094771
 30
0.0
 11
443.1893777076643
 21
39.69421795094771
 31
0.0
 12
442.6893777076643
 22
42.69421795094771
 32
0.0
 13
442.6893777076643
 23
42.69421795094771
 33
0.0
  0
SOLID
  5
780C
330
77AC
100
AcDbEntity
  8
0
 62
     5
100
AcDbTrace
 10
442.1893777076643
 20
30.19421798346934
 30
0.0
 11
443.1893777076643
 21
30.19421798346934
 31
0.0
 12
442.6893777076643
 22
27.19421798346933
 32
0.0
 13
442.6893777076643
 23
27.19421798346933
 33
0.0
  0
MTEXT
  5
780D
330
77AC
100
AcDbEntity
  8
0
 62
     5
100
AcDbMText
 10
440.4393777076643
 20
34.9442179672086
 30
0.0
 40
2.5
 41
0.0
 71
     5
 72
     1
  1
\A1;15±2
 11
0.0000000000000001
 21
1.0
 31
0.0
 73
     1
 44
1.0
  0
POINT
  5
780E
330
77AC
100
AcDbEntity
  8
DEFPOINTS
 62
     0
100
AcDbPoint
 10
430.6166194177735
 20
42.69421795094773
 30
0.0
  0
POINT
  5
780F
330
77AC
100
AcDbEntity
  8
DEFPOINTS
 62
     0
100
AcDbPoint
 10
424.5166186869018
 20
27.19421798346933
 30
0.0
  0
POINT
  5
7810
330
77AC
100
AcDbEntity
  8
DEFPOINTS
 62
     0
100
AcDbPoint
 10
442.6893777076643
 20
27.19421798346933
 30
0.0
  0
ENDBLK
  5
77B7
330
77AC
100
AcDbEntity
  8
0
100
AcDbBlockEnd
  0
ENDSEC
  0
SECTION
  2
ENTITIES
  0
LINE
  5
6FF2
330
6CCB
100
AcDbEntity
  8
0
 62
     5
100
AcDbLine
 10
18.49999984389501
 20
217.2712770110665
 30
0.0
 11
80.49039487461049
 21
217.2712770110665
 31
0.0
  0
LINE
  5
6FF3
330
6CCB
100
AcDbEntity
  8
0
100
AcDbLine
 10
21.76171228335843
 20
192.6092409172154
 30
0.0
 11
21.76171228335815
 21
156.0079005566397
 31
0.0
  0
LINE
  5
6FF4
330
6CCB
100
AcDbEntity
  8
0
100
AcDbLine
 10
25.76171228335836
 20
193.6092409172153
 30
0.0
 11
25.761712283358
 21
156.0079005566397
 31
0.0
  0
LINE
  5
6FF5
330
6CCB
100
AcDbEntity
  8
0
 62
     5
100
AcDbLine
 10
3.499999843895011
 20
202.2712770110664
 30
0.0
 11
3.499999843894981
 21
36.12308673028809
 31
0.0
  0
DIMENSION
  5
6FF6
330
6CCB
100
AcDbEntity
  8
0
100
AcDbDimension
  2
*D3
 10
43.93447130412096
 20
30.95923999191426
 30
0.0
 11
41.68447130412095
 21
38.70923997565347
 31
0.0
 70
    32
  1
15±2
 71
     5
 42
15.49999996747838
  3
JIS$0
100
AcDbAlignedDimension
 13
31.86171301423021
 23
46.45923995939265
 33
0.0
 14
25.76171228335848
 24
30.95923999191426
 34
0.0
 50
90.0
100
AcDbRotatedDimension
1001
ACAD
1000
DSTYLE
1002
{
1070
    41
1040
3.0
1070
    40
1040
1.0
1002
}
  0
DIMENSION
  5
6FF8
330
6CCB
100
AcDbEntity
  8
0
100
AcDbDimension
  2
*D4
 10
8.997927329640909
 20
30.9592399919143
 30
0.0
 11
8.9979273296409
 21
16.9592399919143
 31
0.0
 70
   160
  1
Min5
 71
     5
 42
4.999999975378049
  3
JIS$0
100
AcDbAlignedDimension
 13
20.76171228335851
 23
35.95923996729235
 33
0.0
 14
21.76171228335852
 24
30.9592399919143
 34
0.0
 50
90.0
100
AcDbRotatedDimension
1001
ACAD
1000
DSTYLE
1002
{
1070
   140
1040
2.0
1070
    40
1040
1.0
1002
}
  0
LINE
  5
6FF9
330
6CCB
100
AcDbEntity
  8
0
  6
ByBlock
 62
     0
100
AcDbLine
 10
57.01171228335843
 20
39.50923896350453
 30
0.0
 11
57.01171228335843
 21
32.24926987747291
 31
0.0
  0
LINE
  5
6FFA
330
6CCB
100
AcDbEntity
  8
OBJECT
100
AcDbLine
 10
25.76171228335848
 20
35.95923996729235
 30
0.0
 11
25.76171228335848
 21
30.95923999191426
 31
0.0
  0
LINE
  5
6FFB
330
6CCB
100
AcDbEntity
  8
OBJECT
100
AcDbLine
 10
21.76171228335848
 20
35.95923996729235
 30
0.0
 11
21.76171228335852
 21
30.9592399919143
 31
0.0
  0
DIMENSION
  5
6FFC
330
6CCB
100
AcDbEntity
  8
OBJECT
100
AcDbDimension
  2
*D5
 10
26.76171228335835
 20
14.85000027844586
 30
0.0
 11
41.46199637426744
 21
14.85000027844586
 31
0.0
 70
   160
  1
\fMS UI Gothic|b0|i0|c128|p2;(φ6)
 71
     5
 42
5.999999999999971
  3
JIS$0
100
AcDbAlignedDimension
 13
20.76171228335837
 23
33.64999925793584
 33
0.0
 14
26.76171228335835
 24
33.6499992579358
 34
0.0
100
AcDbRotatedDimension
1001
ACAD
1000
DSTYLE
1002
{
1070
    40
1040
1.0
1002
}
  0
CIRCLE
  5
6FFD
330
6CCB
100
AcDbEntity
  8
OBJECT
100
AcDbCircle
 10
23.76171228335838
 20
3.600000278445874
 30
0.0
 40
2.000000000000027
  0
CIRCLE
  5
6FFE
330
6CCB
100
AcDbEntity
  8
OBJECT
100
AcDbCircle
 10
23.76171228335838
 20
3.600000278445874
 30
0.0
 40
3.0
  0
LINE
  5
6FFF
330
6CCB
100
AcDbEntity
  8
OBJECT
100
AcDbLine
 10
22.78374023340017
 20
0.7638813335670493
 30
0.0
 11
23.76171228335838
 21
0.0000002784458744
 31
0.0
  0
LINE
  5
7000
330
6CCB
100
AcDbEntity
  8
OBJECT
100
AcDbLine
 10
24.73968433331663
 20
0.7638813335670635
 30
0.0
 11
23.76171228335843
 21
0.0000002784458744
 31
0.0
  0
LINE
  5
7001
330
6CCB
100
AcDbEntity
  8
OBJECT
100
AcDbLine
 10
22.78374023340017
 20
6.436119223324701
 30
0.0
 11
23.76171228335838
 21
7.200000278445878
 31
0.0
  0
LINE
  5
7002
330
6CCB
100
AcDbEntity
  8
OBJECT
100
AcDbLine
 10
24.73968433331663
 20
6.436119223324687
 30
0.0
 11
23.76171228335843
 21
7.200000278445878
 31
0.0
  0
LINE
  5
7003
330
6CCB
100
AcDbEntity
  8
0
100
AcDbLine
 10
25.76171228335848
 20
30.95923999191426
 30
0.0
 11
21.76171228335848
 21
30.9592399919143
 31
0.0
  0
DIMENSION
  5
7004
330
6CCB
100
AcDbEntity
  8
OBJECT
100
AcDbDimension
  2
*D6
 10
25.76171228335835
 20
19.85000027844587
 30
0.0
 11
40.46199637426744
 21
19.85000027844587
 31
0.0
 70
   160
  1
\fMS UI Gothic|b0|i0|c128|p2;(φ4)
 71
     5
 42
4.0
  3
JIS$0
100
AcDbAlignedDimension
 13
21.76171228335835
 23
27.64999928255777
 33
0.0
 14
25.76171228335835
 24
27.64999928255774
 34
0.0
100
AcDbRotatedDimension
1001
ACAD
1000
DSTYLE
1002
{
1070
    40
1040
1.0
1002
}
  0
SOLID
  5
7005
330
6CCB
100
AcDbEntity
  8
0
100
AcDbTrace
 10
2.66666651056164
 20
36.12308673028809
 30
0.0
 11
4.333333177228325
 21
36.12308673028809
 31
0.0
 12
3.499999843894983
 22
31.12308673028809
 32
0.0
 13
3.499999843894983
 23
31.12308673028809
 33
0.0
  0
LINE
  5
7006
330
6CCB
100
AcDbEntity
  8
OBJECT
100
AcDbLine
 10
26.76171228335876
 20
80.95923999191425
 30
0.0
 11
26.76171228335826
 21
35.95923996729235
 31
0.0
  0
LINE
  5
7007
330
6CCB
100
AcDbEntity
  8
OBJECT
100
AcDbLine
 10
20.761712283358
 20
80.9592399919143
 30
0.0
 11
20.76171228335837
 21
35.95923996729235
 31
0.0
  0
LINE
  5
7008
330
6CCB
100
AcDbEntity
  8
OBJECT
100
AcDbLine
 10
44.26171228335842
 20
46.45923995939265
 30
0.0
 11
51.56171228335844
 21
46.45923995939265
 31
0.0
  0
ARC
  5
7009
330
6CCB
100
AcDbEntity
  8
OBJECT
100
AcDbCircle
 10
47.56171228335843
 20
46.50923896350454
 30
0.0
 40
1.0
100
AcDbArc
 50
90.0
 51
180.0
  0
MTEXT
  5
700A
330
6CCB
100
AcDbEntity
  8
OBJECT
100
AcDbMText
 10
45.26171228335843
 20
37.40924095528078
 30
0.0
 40
2.5
 41
7.0
 71
     1
 72
     5
  1
OFF
 73
     1
 44
1.0
  0
LINE
  5
700B
330
6CCB
100
AcDbEntity
  8
0
 62
     4
100
AcDbLine
 10
21.56171228335846
 20
60.95923996729235
 30
0.0
 11
21.56171228335836
 21
40.95923996729236
 31
0.0
  0
LINE
  5
700C
330
6CCB
100
AcDbEntity
  8
0
 62
     4
100
AcDbLine
 10
25.96171228335844
 20
60.9592399672924
 30
0.0
 11
25.96171228335836
 21
40.95923996729239
 31
0.0
  0
LINE
  5
700D
330
6CCB
100
AcDbEntity
  8
0
100
AcDbLine
 10
25.96171228335856
 20
35.9592399672924
 30
0.0
 11
21.56171228335856
 21
35.95923996729235
 31
0.0
  0
LINE
  5
700E
330
6CCB
100
AcDbEntity
  8
0
 62
     4
100
AcDbLine
 10
25.96171228335836
 20
40.95923996729239
 30
0.0
 11
21.56171228335836
 21
40.95923996729236
 31
0.0
  0
LINE
  5
700F
330
6CCB
100
AcDbEntity
  8
0
 62
     4
100
AcDbLine
 10
22.06171228335739
 20
47.80923995939267
 30
0.0
 11
25.46171228335739
 21
47.80923995939267
 31
0.0
  0
LINE
  5
7010
330
6CCB
100
AcDbEntity
  8
0
 62
     4
100
AcDbLine
 10
22.06171228335739
 20
45.10923995939265
 30
0.0
 11
25.46171228335739
 21
45.10923995939265
 31
0.0
  0
LINE
  5
7011
330
6CCB
100
AcDbEntity
  8
0
 62
     4
100
AcDbLine
 10
22.06171228335739
 20
45.10923995939265
 30
0.0
 11
22.06171228335739
 21
47.80923995939267
 31
0.0
  0
LINE
  5
7013
330
6CCB
100
AcDbEntity
  8
OBJECT
100
AcDbLine
 10
20.76171228335851
 20
35.95923996729235
 30
0.0
 11
21.76171228335848
 21
35.95923996729235
 31
0.0
  0
LINE
  5
7034
330
6CCB
100
AcDbEntity
  8
OBJECT
100
AcDbLine
 10
46.56171228335844
 20
39.50923896350453
 30
0.0
 11
46.56171228335844
 21
46.50923896350454
 31
0.0
  0
LINE
  5
7035
330
6CCB
100
AcDbEntity
  8
0
 62
     4
100
AcDbLine
 10
25.46171228335739
 20
45.10923995939265
 30
0.0
 11
25.46171228335739
 21
47.80923995939267
 31
0.0
  0
LINE
  5
7036
330
6CCB
100
AcDbEntity
  8
OBJECT
100
AcDbLine
 10
25.76171228335851
 20
35.95923996729235
 30
0.0
 11
26.76171228335852
 21
35.95923996729235
 31
0.0
  0
LINE
  5
7037
330
6CCB
100
AcDbEntity
  8
OBJECT
100
AcDbLine
 10
29.76171228335839
 20
44.40924095528081
 30
0.0
 11
30.7617122833584
 21
44.40924095528081
 31
0.0
  0
MTEXT
  5
7038
330
6CCB
100
AcDbEntity
  8
OBJECT
100
AcDbMText
 10
29.76171228335839
 20
50.75960373106693
 30
0.0
 40
2.0
 41
15.36989813657378
 71
     1
 72
     5
  1
\fMS UI Gothic|b0|i0|c128|p2;液面
 73
     1
 44
1.0
  0
LINE
  5
7039
330
6CCB
100
AcDbEntity
  8
OBJECT
100
AcDbLine
 10
31.86171301423021
 20
46.45923995939265
 30
0.0
 11
27.7617122833584
 21
46.45923995939265
 31
0.0
  0
LINE
  5
703A
330
6CCB
100
AcDbEntity
  8
OBJECT
100
AcDbLine
 10
28.7617122833584
 20
45.4092409552808
 30
0.0
 11
31.7617122833584
 21
45.4092409552808
 31
0.0
  0
MTEXT
  5
703B
330
6CCB
100
AcDbEntity
  8
OBJECT
100
AcDbMText
 10
38.21444280457443
 20
49.15533972174137
 30
0.0
 40
2.0
 41
8.18256881188133
 71
     1
 72
     5
  1
SW1
 73
     1
 44
1.0
  0
LINE
  5
703C
330
6CCB
100
AcDbEntity
  8
0
 62
     4
100
AcDbLine
 10
25.96171228335811
 20
60.9592399672924
 30
0.0
 11
21.5617122833581
 21
60.95923996729235
 31
0.0
  0
MTEXT
  5
703D
330
6CCB
100
AcDbEntity
  8
0
  6
ByBlock
 62
     0
100
AcDbMText
 10
54.76171228335843
 20
59.68121181506696
 30
0.0
 40
2.0
 41
0.0
 71
     5
 72
     1
  1
\A1;Max2
 11
0.0000000000000001
 21
1.0
 31
0.0
 73
     1
 44
1.0
  0
LINE
  5
703E
330
6CCB
100
AcDbEntity
  8
0
  6
ByBlock
 62
     0
100
AcDbLine
 10
57.01171228335843
 20
51.40924095528077
 30
0.0
 11
57.01171228335843
 21
64.39338355906946
 31
0.0
  0
LINE
  5
703F
330
6CCB
100
AcDbEntity
  8
0
  6
ByBlock
 62
     0
100
AcDbLine
 10
57.01171228335843
 20
46.40924095528077
 30
0.0
 11
57.01171228335843
 21
44.50923896350454
 31
0.0
  0
LINE
  5
7040
330
6CCB
100
AcDbEntity
  8
OBJECT
100
AcDbLine
 10
47.56171228335843
 20
46.45923995939265
 30
0.0
 11
47.56171228335843
 21
39.50923896350453
 31
0.0
  0
LINE
  5
7041
330
6CCB
100
AcDbEntity
  8
OBJECT
100
AcDbLine
 10
51.56171228335844
 20
44.50923896350452
 30
0.0
 11
51.56171228335844
 21
51.50923896350454
 31
0.0
  0
LINE
  5
7042
330
6CCB
100
AcDbEntity
  8
OBJECT
100
AcDbLine
 10
52.56171228335844
 20
51.50923896350454
 30
0.0
 11
52.56171228335844
 21
44.50923896350454
 31
0.0
  0
LINE
  5
7043
330
6CCB
100
AcDbEntity
  8
OBJECT
100
AcDbLine
 10
48.56171228335846
 20
42.50923896350453
 30
0.0
 11
48.56171228335846
 21
38.50923896350453
 31
0.0
  0
LINE
  5
7044
330
6CCB
100
AcDbEntity
  8
OBJECT
100
AcDbLine
 10
48.56171228335846
 20
38.50923896350453
 30
0.0
 11
48.96171228335842
 21
40.10923896350454
 31
0.0
  0
LINE
  5
7045
330
6CCB
100
AcDbEntity
  8
OBJECT
100
AcDbLine
 10
48.56171228335846
 20
38.50923896350453
 30
0.0
 11
48.16171228335844
 21
40.10923896350454
 31
0.0
  0
POINT
  5
7046
330
6CCB
100
AcDbEntity
  8
DEFPOINTS
  6
ByBlock
 62
     0
100
AcDbPoint
 10
52.56171228335844
 20
44.50923896350454
 30
0.0
  0
LINE
  5
7047
330
6CCB
100
AcDbEntity
  8
OBJECT
100
AcDbLine
 10
47.56171228335843
 20
44.50923896350452
 30
0.0
 11
51.56171228335844
 21
44.50923896350452
 31
0.0
  0
LINE
  5
7048
330
6CCB
100
AcDbEntity
  8
OBJECT
100
AcDbLine
 10
51.56171228335844
 20
43.50923896350454
 30
0.0
 11
49.56171228335843
 21
43.50923896350454
 31
0.0
  0
ARC
  5
7049
330
6CCB
100
AcDbEntity
  8
OBJECT
100
AcDbCircle
 10
51.56171228335844
 20
44.50923896350454
 30
0.0
 40
1.0
100
AcDbArc
 50
270.0
 51
0.0
  0
ARC
  5
704A
330
6CCB
100
AcDbEntity
  8
OBJECT
100
AcDbCircle
 10
49.56171228335843
 20
42.50923896350453
 30
0.0
 40
1.0
100
AcDbArc
 50
90.0
 51
180.0
  0
LINE
  5
704B
330
6CCB
100
AcDbEntity
  8
OBJECT
100
AcDbLine
 10
48.96171228335842
 20
40.10923896350454
 30
0.0
 11
48.96171228335842
 21
40.10923896350454
 31
0.0
  0
POINT
  5
704C
330
6CCB
100
AcDbEntity
  8
DEFPOINTS
  6
ByBlock
 62
     0
100
AcDbPoint
 10
57.01171228335843
 20
44.50923896350454
 30
0.0
  0
SOLID
  5
704D
330
6CCB
100
AcDbEntity
  8
0
  6
ByBlock
 62
     0
100
AcDbTrace
 10
56.17837895002509
 20
39.50923896350453
 30
0.0
 11
57.84504561669177
 21
39.50923896350453
 31
0.0
 12
57.01171228335843
 22
44.50923896350454
 32
0.0
 13
57.01171228335843
 23
44.50923896350454
 33
0.0
  0
LINE
  5
704E
330
6CCB
100
AcDbEntity
  8
0
  6
ByBlock
 62
     0
100
AcDbLine
 10
53.56171228335846
 20
44.50923896350454
 30
0.0
 11
58.01171228335842
 21
44.50923896350454
 31
0.0
  0
SOLID
  5
704F
330
6CCB
100
AcDbEntity
  8
0
  6
ByBlock
 62
     0
100
AcDbTrace
 10
56.17837895002509
 20
51.40924095528077
 30
0.0
 11
57.84504561669177
 21
51.40924095528077
 31
0.0
 12
57.01171228335843
 22
46.40924095528077
 32
0.0
 13
57.01171228335843
 23
46.40924095528077
 33
0.0
  0
LINE
  5
7050
330
6CCB
100
AcDbEntity
  8
OBJECT
100
AcDbLine
 10
50.56171228335845
 20
48.50923896350455
 30
0.0
 11
50.56171228335845
 21
52.50923896350454
 31
0.0
  0
INSERT
  5
7051
330
6CCB
100
AcDbEntity
  8
OBJECT
100
AcDbBlockReference
  2
A$C29996E5A
 10
50.16171228335844
 20
50.90923896350453
 30
0.0
  0
POINT
  5
7052
330
6CCB
100
AcDbEntity
  8
DEFPOINTS
  6
ByBlock
 62
     0
100
AcDbPoint
 10
52.56171228335844
 20
46.40924095528077
 30
0.0
  0
LINE
  5
7053
330
6CCB
100
AcDbEntity
  8
OBJECT
100
AcDbLine
 10
47.56171228335843
 20
47.50923896350454
 30
0.0
 11
49.56171228335843
 21
47.50923896350454
 31
0.0
  0
ARC
  5
7054
330
6CCB
100
AcDbEntity
  8
OBJECT
100
AcDbCircle
 10
49.56171228335843
 20
48.50923896350455
 30
0.0
 40
1.0
100
AcDbArc
 50
270.0
 51
0.0
  0
LINE
  5
7055
330
6CCB
100
AcDbEntity
  8
0
  6
ByBlock
 62
     0
100
AcDbLine
 10
53.56171228335846
 20
46.40924095528077
 30
0.0
 11
58.01171228335842
 21
46.40924095528077
 31
0.0
  0
MTEXT
  5
7056
330
6CCB
100
AcDbEntity
  8
OBJECT
100
AcDbMText
 10
48.26171228335843
 20
55.40924095528078
 30
0.0
 40
2.5
 41
5.0
 71
     1
 72
     5
  1
ON
 73
     1
 44
1.0
  0
LINE
  5
7057
330
6CCB
100
AcDbEntity
  8
OBJECT
100
AcDbLine
 10
21.76171228335803
 20
100.9592400165358
 30
0.0
 11
21.76171228335803
 21
102.5592405144797
 31
0.0
  0
LINE
  5
7059
330
6CCB
100
AcDbEntity
  8
OBJECT
100
AcDbLine
 10
19.76171228335802
 20
140.3473504245216
 30
0.0
 11
27.76171228335803
 21
145.3473504245216
 31
0.0
  0
LINE
  5
705A
330
6CCB
100
AcDbEntity
  8
0
100
AcDbLine
 10
26.76171228335856
 20
80.95923999191425
 30
0.0
 11
20.76171228335837
 21
80.9592399919143
 31
0.0
  0
LINE
  5
705C
330
6CCB
100
AcDbEntity
  8
OBJECT
100
AcDbLine
 10
20.761712283358
 20
80.95923999191398
 30
0.0
 11
21.76171228335801
 21
100.9592400165357
 31
0.0
  0
LINE
  5
705D
330
6CCB
100
AcDbEntity
  8
OBJECT
100
AcDbLine
 10
26.76171228335876
 20
80.95923999191425
 30
0.0
 11
25.76171228335804
 21
100.9592400165357
 31
0.0
  0
LINE
  5
705E
330
6CCB
100
AcDbEntity
  8
OBJECT
100
AcDbLine
 10
19.76171228335802
 20
142.7058457075356
 30
0.0
 11
27.76171228335803
 21
147.7058457075356
 31
0.0
  0
ARC
  5
7061
330
6CCB
100
AcDbEntity
  8
0
 62
     5
100
AcDbCircle
 10
18.49999984389501
 20
202.2712770110664
 30
0.0
 40
15.0
100
AcDbArc
 50
90.0
 51
180.0
  0
MTEXT
  5
7062
330
6CCB
100
AcDbEntity
  8
0
 62
     5
100
AcDbMText
 10
40.92188813374565
 20
219.5212770110665
 30
0.0
 40
2.5
 41
0.0
 71
     5
 72
     1
  1
{\fMS UI Gothic|b0|i0|c128|p50;310±20}
 73
     1
 44
1.0
  0
LINE
  5
7063
330
6CCB
100
AcDbEntity
  8
0
100
AcDbLine
 10
48.47467990908547
 20
207.6092409172153
 30
0.0
 11
44.9356302004295
 21
211.6054426930083
 31
0.0
  0
DIMENSION
  5
7064
330
6CCB
100
AcDbEntity
  8
0
100
AcDbDimension
  2
*D7
 10
45.0820639841329
 20
178.0275925009823
 30
0.0
 11
52.5820639841329
 21
180.2775925009823
 31
0.0
 70
    32
  1
(30)
 71
     5
 42
15.0
  3
JIS$0
100
AcDbAlignedDimension
 13
60.0820639841329
 23
203.6092409172153
 33
0.0
 14
45.0820639841329
 24
203.6092409172153
 34
0.0
100
AcDbRotatedDimension
1001
ACAD
1000
DSTYLE
1002
{
1070
    40
1040
1.0
1002
}
  0
HATCH
  5
7065
330
6CCB
100
AcDbEntity
  8
0
100
AcDbHatch
 10
0.0
 20
0.0
 30
0.0
210
0.0
220
0.0
230
1.0
  2
ANSI31
 70
     0
 71
     1
 91
        1
 92
        7
 72
     0
 73
     1
 93
        4
 10
45.08206398413287
 20
203.6092409172153
 10
60.0820639841329
 20
203.6092409172153
 10
60.0820639841329
 20
207.6092409172153
 10
45.0820639841329
 20
207.6092409172154
 97
        4
330
7066
330
706C
330
7067
330
7074
 75
     0
 76
     1
 52
0.0
 41
0.5
 77
     0
 78
     1
 53
45.0
 43
-190.0000001465198
 44
-42.09075928972629
 45
-1.122532015133643
 46
1.122532015133643
 79
     0
 47
0.0277893081476886
 98
        1
 10
45.74802037603956
 20
206.2116038927648
  0
LINE
  5
7066
102
{ACAD_REACTORS
330
7065
102
}
330
6CCB
100
AcDbEntity
  8
OBJECT
100
AcDbLine
 10
36.76171228335842
 20
207.6092409172153
 30
0.0
 11
60.0820639841329
 21
207.6092409172153
 31
0.0
  0
LINE
  5
7067
102
{ACAD_REACTORS
330
7065
102
}
330
6CCB
100
AcDbEntity
  8
OBJECT
100
AcDbLine
 10
35.76171228335837
 20
203.6092409172153
 30
0.0
 11
60.0820639841329
 21
203.6092409172153
 31
0.0
  0
ARC
  5
7068
330
6CCB
100
AcDbEntity
  8
0
100
AcDbCircle
 10
36.76171228335842
 20
192.6092409172154
 30
0.0
 40
15.0
100
AcDbArc
 50
90.0
 51
180.0
  0
ARC
  5
7069
330
6CCB
100
AcDbEntity
  8
0
100
AcDbCircle
 10
35.76171228335837
 20
193.6092409172153
 30
0.0
 40
10.0
100
AcDbArc
 50
90.0
 51
179.9999999999998
  0
MTEXT
  5
706A
330
6CCB
100
AcDbEntity
  8
0
100
AcDbMText
 10
21.43670645139593
 20
216.0713517079451
 30
0.0
 40
2.5
 41
23.49889999999999
 71
     1
 72
     5
  1
{\fMS UI Gothic|b0|i0|c128|p50;熱収縮チューブ}
 73
     1
 44
1.0
  0
LINE
  5
706B
330
6CCB
100
AcDbEntity
  8
0
100
AcDbLine
 10
44.9356302004295
 20
211.6054426930083
 30
0.0
 11
21.18128372222201
 21
211.6054426930083
 31
0.0
  0
LINE
  5
706C
102
{ACAD_REACTORS
330
7065
102
}
330
6CCB
100
AcDbEntity
  8
OBJECT
100
AcDbLine
 10
45.0820639841329
 20
207.6092409172153
 30
0.0
 11
45.0820639841329
 21
203.6092409172153
 31
0.0
  0
DIMENSION
  5
706D
330
6CCB
100
AcDbEntity
  8
0
100
AcDbDimension
  2
*D8
 10
60.0820639841329
 20
178.0275925009823
 30
0.0
 11
72.61888797951712
 21
178.0275925009823
 31
0.0
 70
   160
  1
(50)
 71
     5
 42
25.07364799076844
  3
JIS$0
100
AcDbAlignedDimension
 13
85.15571197490134
 23
199.4000039099945
 33
0.0
 14
60.0820639841329
 24
203.6092409172153
 34
0.0
100
AcDbRotatedDimension
1001
ACAD
1000
DSTYLE
1002
{
1070
    40
1040
1.0
1002
}
  0
LINE
  5
706E
330
6CCB
100
AcDbEntity
  8
0
100
AcDbLine
 10
62.5820639841329
 20
204.6092409172158
 30
0.0
 11
72.42901337445393
 21
202.3868403465967
 31
0.0
  0
LINE
  5
706F
330
6CCB
100
AcDbEntity
  8
0
100
AcDbLine
 10
62.67427217742201
 20
205.1092409172158
 30
0.0
 11
72.42901337445393
 21
202.8868403465967
 31
0.0
  0
LINE
  5
7070
330
6CCB
100
AcDbEntity
  8
0
100
AcDbLine
 10
62.67427217742201
 20
206.2092409172153
 30
0.0
 11
72.42901337445393
 21
208.4316414878343
 31
0.0
  0
LINE
  5
7071
330
6CCB
100
AcDbEntity
  8
0
100
AcDbLine
 10
62.5820639841329
 20
206.7092409172153
 30
0.0
 11
72.42901337445393
 21
208.9316414878342
 31
0.0
  0
LINE
  5
7072
330
6CCB
100
AcDbEntity
  8
OBJECT
100
AcDbLine
 10
60.0820639841329
 20
205.9092409172153
 30
0.0
 11
85.08206398413291
 21
205.9092409172153
 31
0.0
  0
LINE
  5
7073
330
6CCB
100
AcDbEntity
  8
OBJECT
100
AcDbLine
 10
60.0820639841329
 20
205.4092409172152
 30
0.0
 11
85.08206398413291
 21
205.4092409172152
 31
0.0
  0
LINE
  5
7074
102
{ACAD_REACTORS
330
7065
102
}
330
6CCB
100
AcDbEntity
  8
OBJECT
100
AcDbLine
 10
60.0820639841329
 20
207.6092409172153
 30
0.0
 11
60.0820639841329
 21
203.6092409172153
 31
0.0
  0
LINE
  5
7075
330
6CCB
100
AcDbEntity
  8
OBJECT
100
AcDbLine
 10
60.0820639841329
 20
206.7092409172153
 30
0.0
 11
62.5820639841329
 21
206.7092409172153
 31
0.0
  0
LINE
  5
7076
330
6CCB
100
AcDbEntity
  8
OBJECT
100
AcDbLine
 10
60.0820639841329
 20
206.2092409172153
 30
0.0
 11
62.67427217742201
 21
206.2092409172153
 31
0.0
  0
LINE
  5
7077
330
6CCB
100
AcDbEntity
  8
OBJECT
100
AcDbLine
 10
60.0820639841329
 20
205.1092409172154
 30
0.0
 11
62.5820639841329
 21
205.1092409172154
 31
0.0
  0
LINE
  5
7078
330
6CCB
100
AcDbEntity
  8
OBJECT
100
AcDbLine
 10
60.0820639841329
 20
204.6092409172154
 30
0.0
 11
62.5820639841329
 21
204.6092409172154
 31
0.0
  0
LINE
  5
7079
330
6CCB
100
AcDbEntity
  8
OBJECT
100
AcDbLine
 10
72.42901337445393
 20
202.3868403465967
 30
0.0
 11
85.08206398413291
 21
202.3868403465967
 31
0.0
  0
LINE
  5
707A
330
6CCB
100
AcDbEntity
  8
OBJECT
100
AcDbLine
 10
72.42901337445528
 20
202.8868403465966
 30
0.0
 11
85.08206398413291
 21
202.8868403465967
 31
0.0
  0
LINE
  5
707B
330
6CCB
100
AcDbEntity
  8
OBJECT
100
AcDbLine
 10
85.08206398413291
 20
202.3868403465967
 30
0.0
 11
85.08206398413291
 21
202.8868403465967
 31
0.0
  0
LINE
  5
707C
330
6CCB
100
AcDbEntity
  8
OBJECT
100
AcDbLine
 10
85.08206398413291
 20
205.9092409172153
 30
0.0
 11
85.08206398413291
 21
205.4092409172152
 31
0.0
  0
LINE
  5
707D
330
6CCB
100
AcDbEntity
  8
OBJECT
100
AcDbLine
 10
72.4290133744541
 20
208.9316414878343
 30
0.0
 11
85.08206398413291
 21
208.9316414878343
 31
0.0
  0
LINE
  5
707E
330
6CCB
100
AcDbEntity
  8
OBJECT
100
AcDbLine
 10
72.4290133744534
 20
208.431641487834
 30
0.0
 11
85.08206398413291
 21
208.4316414878343
 31
0.0
  0
LINE
  5
707F
330
6CCB
100
AcDbEntity
  8
OBJECT
100
AcDbLine
 10
85.08206398413291
 20
208.9316414878343
 30
0.0
 11
85.08206398413291
 21
208.4316414878343
 31
0.0
  0
SOLID
  5
7081
330
6CCB
100
AcDbEntity
  8
0
100
AcDbTrace
 10
80.57158573163667
 20
218.1046103443998
 30
0.0
 11
80.57158573163667
 21
216.4379436777331
 31
0.0
 12
85.57158573163667
 22
217.2712770110665
 32
0.0
 13
85.57158573163667
 23
217.2712770110665
 33
0.0
  0
LINE
  5
7082
330
6CCB
100
AcDbEntity
  8
0
100
AcDbLine
 10
85.57158573163667
 20
213.440258964141
 30
0.0
 11
85.57158573163667
 21
218.2712770110665
 31
0.0
  0
LWPOLYLINE
  5
7122
330
6CCB
100
AcDbEntity
  8
OBJECT
 62
     4
100
AcDbPolyline
 90
        4
 70
     1
 43
0.0
 10
22.38090686267082
 20
47.39821346397309
 10
23.68319562169244
 20
47.39821346397309
 10
23.68319562169244
 20
45.51881081170257
 10
22.38090686267082
 20
45.51881081170257
  0
LWPOLYLINE
  5
7123
330
6CCB
100
AcDbEntity
  8
OBJECT
 62
     4
100
AcDbPolyline
 90
        4
 70
     1
 43
0.0
 10
24.18964160553992
 20
47.39821346397309
 10
24.98548438071407
 20
47.39821346397309
 10
24.98548438071407
 20
45.51881081170257
 10
24.18964160553992
 20
45.51881081170257
  0
LINE
  5
7124
330
6CCB
100
AcDbEntity
  8
OBJECT
100
AcDbLine
 10
23.76171228335846
 20
80.9592399919143
 30
0.0
 11
23.76171228335905
 21
37.44803124265525
 31
0.0
  0
LINE
  5
7125
330
6CCB
100
AcDbEntity
  8
OBJECT
100
AcDbLine
 10
24.76171228335851
 20
78.05028175683697
 30
0.0
 11
24.76171228335906
 21
36.88475314167726
 31
0.0
  0
LINE
  5
7126
330
6CCB
100
AcDbEntity
  8
OBJECT
100
AcDbLine
 10
22.76171228335851
 20
78.05028175683694
 30
0.0
 11
22.76171228335905
 21
36.80428523668445
 31
0.0
  0
LINE
  5
7127
330
6CCB
100
AcDbEntity
  8
OBJECT
100
AcDbLine
 10
23.76171228335846
 20
80.9592399919143
 30
0.0
 11
24.76703444166423
 21
78.05028175683697
 31
0.0
  0
LINE
  5
7129
330
6CCB
100
AcDbEntity
  8
OBJECT
100
AcDbLine
 10
22.76171228335851
 20
78.05028175683694
 30
0.0
 11
23.76171228335846
 21
80.9592399919143
 31
0.0
  0
LINE
  5
722D
330
6CCB
100
AcDbEntity
  8
OBJECT
100
AcDbLine
 10
20.76171228335727
 20
120.9592400411572
 30
0.0
 11
21.76171228335801
 21
100.9592400165357
 31
0.0
  0
LINE
  5
722E
330
6CCB
100
AcDbEntity
  8
OBJECT
100
AcDbLine
 10
26.76171228335803
 20
120.9592400411575
 30
0.0
 11
25.76171228335804
 21
100.9592400165357
 31
0.0
  0
LINE
  5
722F
330
6CCB
100
AcDbEntity
  8
0
100
AcDbLine
 10
20.76171228335746
 20
120.9592400411572
 30
0.0
 11
26.76171228335765
 21
120.9592400411572
 31
0.0
  0
LINE
  5
7230
330
6CCB
100
AcDbEntity
  8
OBJECT
100
AcDbLine
 10
25.76171228335804
 20
102.0556292550716
 30
0.0
 11
25.76171228335804
 21
100.9592400165357
 31
0.0
  0
LINE
  5
7231
330
6CCB
100
AcDbEntity
  8
OBJECT
100
AcDbLine
 10
20.76171228335727
 20
120.9592400411572
 30
0.0
 11
20.76171228335727
 21
140.972350424521
 31
0.0
  0
LINE
  5
7232
330
6CCB
100
AcDbEntity
  8
OBJECT
100
AcDbLine
 10
26.76171228335803
 20
120.9592400411575
 30
0.0
 11
26.76171228335803
 21
144.7223504245216
 31
0.0
  0
LINE
  5
7233
330
6CCB
100
AcDbEntity
  8
OBJECT
100
AcDbLine
 10
26.76171228335803
 20
156.0079005566397
 30
0.0
 11
20.76171228335727
 21
156.0079005566397
 31
0.0
  0
LINE
  5
7234
330
6CCB
100
AcDbEntity
  8
OBJECT
100
AcDbLine
 10
26.76171228335803
 20
147.0808457075356
 30
0.0
 11
26.76171228335803
 21
156.0079005566397
 31
0.0
  0
LINE
  5
7235
330
6CCB
100
AcDbEntity
  8
OBJECT
100
AcDbLine
 10
20.76171228335727
 20
143.3308457075353
 30
0.0
 11
20.76171228335727
 21
156.0079005566397
 31
0.0
  0
DIMENSION
  5
7236
330
6CCB
100
AcDbEntity
  8
OBJECT
100
AcDbDimension
  2
*D11
 10
11.72080993745478
 20
156.0079005566397
 30
0.0
 11
11.72080993745476
 21
97.22331933881028
 31
0.0
 70
   160
  1
175
 71
     5
 42
109.5493884188017
  3
JIS$0
100
AcDbAlignedDimension
 13
23.68319562169244
 23
46.45851213783783
 33
0.0
 14
21.76171228335815
 24
156.0079005566397
 34
0.0
 50
90.0
100
AcDbRotatedDimension
1001
ACAD
1000
DSTYLE
1002
{
1070
    47
1040
10.0
1070
   272
1070
     0
1070
    48
1040
10.00000001
1070
   147
1040
1.0
1070
    72
1070
     0
1070
    71
1070
     1
1070
    40
1040
1.0
1002
}
  0
DIMENSION
  5
725F
330
6CCB
100
AcDbEntity
  8
OBJECT
100
AcDbDimension
  2
*D12
 10
26.76171228335803
 20
137.5027133080718
 30
0.0
 11
42.06654741997829
 21
137.5027133080718
 31
0.0
 70
   160
 71
     5
 42
6.000000000000767
  3
JIS$0
100
AcDbAlignedDimension
 13
20.76171228335727
 23
136.2589072894062
 33
0.0
 14
26.76171228335803
 24
136.2589072894062
 34
0.0
100
AcDbRotatedDimension
1001
ACAD
1000
DSTYLE
1002
{
1070
   146
1040
0.7
1070
    47
1040
0.2
1070
   283
1070
     1
1070
   272
1070
     1
1070
   147
1040
1.0
1070
    48
1040
0.0
1070
    72
1070
     0
1070
    71
1070
     0
1070
    40
1040
1.0
1002
}
  0
MTEXT
  5
7275
330
6CCB
100
AcDbEntity
  8
OBJECT
100
AcDbMText
 10
35.98363600676906
 20
141.5938819765026
 30
0.0
 40
2.5
 41
4.724999999999998
 71
     1
 72
     5
  1
{\fMS UI Gothic|b0|i0|c128|p17;Φ}
 73
     1
 44
1.0
  0
DIMENSION
  5
72B6
330
6CCB
100
AcDbEntity
  8
OBJECT
100
AcDbDimension
  2
*D13
 10
16.68075274007969
 20
126.8917647288853
 30
0.0
 11
14.43075274007967
 21
86.67513843336161
 31
0.0
 70
    32
  1
55
 71
     5
 42
80.43325259104756
  3
JIS$0
100
AcDbAlignedDimension
 13
22.68319562169244
 23
46.45851213783783
 33
0.0
 14
20.76171228335727
 24
126.8917647288853
 34
0.0
 50
90.0
100
AcDbRotatedDimension
1001
ACAD
1000
DSTYLE
1002
{
1070
    40
1040
1.0
1002
}
  0
MTEXT
  5
735A
330
6CCB
100
AcDbEntity
  8
OBJECT
100
AcDbMText
 10
8.303171743882897
 20
100.8459399469632
 30
0.0
 40
2.5
 41
10.60389999999999
 71
     1
 72
     5
  1
{\fMS UI Gothic|b0|i0|c128|p17;±5}
 11
0.0000000000000001
 21
1.0
 31
0.0
 73
     1
 44
1.0
  0
LWPOLYLINE
  5
73BE
330
6CCB
100
AcDbEntity
  8
OBJECT
100
AcDbPolyline
 90
        4
 70
     1
 43
0.0
 10
85.19485513521795
 20
210.9714253548129
 10
95.67755705236775
 20
210.9714253548129
 10
95.67755705236775
 20
200.6501800823131
 10
85.19485513521795
 20
200.6501800823131
  0
LWPOLYLINE
  5
73BF
330
6CCB
100
AcDbEntity
  8
OBJECT
100
AcDbPolyline
 90
        4
 70
     1
 43
0.0
 10
95.67755705236775
 20
212.9446045980849
 10
103.5775670640537
 20
212.9446045980849
 10
103.5775670640537
 20
198.3734348016146
 10
95.67755705236775
 20
198.3734348016146
  0
MTEXT
  5
73C9
330
6CCB
100
AcDbEntity
  8
OBJECT
100
AcDbMText
 10
104.5051013612254
 20
219.1217780479345
 30
0.0
 40
3.5
 41
9.3407
 71
     1
 72
     5
  1
{\fMS UI Gothic|b0|i0|c128|p17;PIN}
 73
     1
 44
1.0
  0
MTEXT
  5
73CA
330
6CCB
100
AcDbEntity
  8
OBJECT
100
AcDbMText
 10
106.1894960142089
 20
212.8493706763696
 30
0.0
 40
3.5
 41
4.7469
 71
     1
 72
     5
  1
{\fMS UI Gothic|b0|i0|c128|p17;1}
 73
     1
 44
1.0
  0
MTEXT
  5
73CB
330
6CCB
100
AcDbEntity
  8
OBJECT
100
AcDbMText
 10
106.1894960142089
 20
207.494876192743
 30
0.0
 40
3.5
 41
4.7469
 71
     1
 72
     5
  1
{\fMS UI Gothic|b0|i0|c128|p17;2}
 73
     1
 44
1.0
  0
MTEXT
  5
73CC
330
6CCB
100
AcDbEntity
  8
OBJECT
100
AcDbMText
 10
106.1894960142089
 20
202.1403817091166
 30
0.0
 40
3.5
 41
4.7469
 71
     1
 72
     5
  1
{\fMS UI Gothic|b0|i0|c128|p17;3}
 73
     1
 44
1.0
  0
MTEXT
  5
73CD
330
6CCB
100
AcDbEntity
  8
OBJECT
100
AcDbMText
 10
111.2426834479682
 20
213.6142979278482
 30
0.0
 40
3.5
 41
5.971899999999998
 71
     1
 72
     5
  1
{\fMS UI Gothic|b0|i0|c128|p17;茶}
 73
     1
 44
1.0
  0
MTEXT
  5
73CE
330
6CCB
100
AcDbEntity
  8
OBJECT
100
AcDbMText
 10
111.2426834479682
 20
207.9538331021216
 30
0.0
 40
3.5
 41
5.971899999999998
 71
     1
 72
     5
  1
{\fMS UI Gothic|b0|i0|c128|p17;黒}
 73
     1
 44
1.0
  0
MTEXT
  5
73CF
330
6CCB
100
AcDbEntity
  8
OBJECT
100
AcDbMText
 10
111.2426834479682
 20
202.1403817091166
 30
0.0
 40
3.5
 41
5.971899999999998
 71
     1
 72
     5
  1
{\fMS UI Gothic|b0|i0|c128|p17;青}
 73
     1
 44
1.0
  0
LEADER
  5
73D0
330
6CCB
100
AcDbEntity
  8
OBJECT
100
AcDbLeader
  3
JIS
 73
     0
 74
     0
 75
     1
 40
7.817234848484847
 41
47.88352272727272
 76
     3
 10
95.67755705236775
 20
198.3734348016146
 30
0.0
 10
98.77262426853301
 20
189.8334546026421
 30
0.0
 10
101.272624268533
 20
189.8334546026421
 30
0.0
340
73D1
213
0.0
223
-1.25
233
0.0
1001
ACAD
1000
DSTYLE
1002
{
1070
   147
1040
0.0
1070
    77
1070
     0
1070
   141
1040
-7.0
1002
}
  0
MTEXT
  5
73D1
102
{ACAD_REACTORS
330
73D0
102
}
330
6CCB
100
AcDbEntity
  8
OBJECT
100
AcDbMText
 10
101.272624268533
 20
191.0834546026421
 30
0.0
 40
2.5
 41
0.0
 71
     1
 72
     1
  1
{\fMS UI Gothic|b0|i0|c128|p17;ハウジング　SMR-03V-N　(日圧）\Pコンタクト　SYM-001T-0.6（日圧）}
 73
     1
 44
1.0
  0
MTEXT
  5
74B3
330
6CCB
100
AcDbEntity
  8
OBJECT
100
AcDbMText
 10
45.81824069026242
 20
141.4592883463849
 30
0.0
 40
2.5
 41
16.8826
 71
     1
 72
     5
  1
{\fMS UI Gothic|b0|i0|c128|p50;\H1.2x;チューブ}
 73
     1
 44
1.0
  0
LEADER
  5
74B6
330
6CCB
100
AcDbEntity
  8
OBJECT
100
AcDbLeader
  3
JIS
 73
     0
 74
     0
 75
     1
 40
3.423295454545453
 41
28.69318181818181
 76
     3
 10
26.76171228335803
 20
120.9592400411572
 30
0.0
 10
33.8714270987796
 20
113.3028498097914
 30
0.0
 10
36.3714270987796
 20
113.3028498097914
 30
0.0
340
74B7
213
0.0
223
-1.25
233
0.0
1001
ACAD
1000
DSTYLE
1002
{
1070
   147
1040
0.0
1070
    77
1070
     0
1070
   141
1040
-7.0
1002
}
  0
MTEXT
  5
74B7
102
{ACAD_REACTORS
330
74B6
102
}
330
6CCB
100
AcDbEntity
  8
OBJECT
100
AcDbMText
 10
36.3714270987796
 20
114.5528498097914
 30
0.0
 40
2.5
 41
0.0
 71
     1
 72
     1
  1
{\fMS UI Gothic|b0|i0|c128|p50;溶着部φ６．２以下}
 73
     1
 44
1.0
  0
LWPOLYLINE
  5
7501
330
6CCB
100
AcDbEntity
  8
OBJECT
  6
DASHED2
 48
0.01
100
AcDbPolyline
 90
        4
 70
     1
 43
0.0
 10
97.7694798200239
 20
211.1472201078488
 10
102.1967764311955
 20
211.1472201078488
 10
102.1967764311955
 20
200.5525631761237
 10
97.7694798200239
 20
200.5525631761237
  0
MTEXT
  5
7505
330
6CCB
100
AcDbEntity
  8
OBJECT
100
AcDbMText
 10
91.91554223684784
 20
208.2334291058636
 30
0.0
 40
3.5
 41
0.0000000000000018
 71
     1
 72
     5
  1
{\fMS UI Gothic|b0|i0|c128|p17;Ｋ}
 11
-0.0000000000000002
 21
-1.0
 31
0.0
 73
     1
 44
1.0
  0
LEADER
  5
7506
330
6CCB
100
AcDbEntity
  8
OBJECT
100
AcDbLeader
  3
JIS
 73
     0
 74
     0
 75
     1
 40
3.352272727272727
 41
27.59943181818182
 76
     3
 10
99.98312812560973
 20
211.1472201078488
 30
0.0
 10
99.3255059004789
 20
224.7906302868549
 30
0.0
 10
103.3255059004789
 20
224.7906302868549
 30
0.0
340
7507
213
0.0
223
-1.25
233
0.0
1001
ACAD
1000
DSTYLE
1002
{
1070
    41
1040
4.0
1070
   147
1040
0.0
1070
    77
1070
     0
1070
   141
1040
-7.0
1002
}
  0
MTEXT
  5
7507
102
{ACAD_REACTORS
330
7506
102
}
330
6CCB
100
AcDbEntity
  8
OBJECT
100
AcDbMText
 10
103.3255059004789
 20
226.0406302868549
 30
0.0
 40
2.5
 41
0.0
 71
     1
 72
     1
  1
{\fMS UI Gothic|b0|i0|c128|p17;ロット番号表記ヶ所}
 73
     1
 44
1.0
  0
MTEXT
  5
7508
330
6CCB
100
AcDbEntity
  8
OBJECT
100
AcDbMText
 10
86.98490033453049
 20
172.3789399222005
 30
0.0
 40
2.5
 41
84.2626
 71
     1
 72
     5
  1
{\fMS UI Gothic|b0|i0|c128|p17;ロット番号は黒色不滅インクにて表記する}
 73
     1
 44
1.0
  0
MTEXT
  5
7509
330
6CCB
100
AcDbEntity
  8
OBJECT
100
AcDbMText
 10
88.89247136282666
 20
165.8776067144243
 30
0.0
 40
2.5
 41
26.39089999999999
 71
     1
 72
     5
  1
{\fMS UI Gothic|b0|i0|c128|p17;例　　０　０}
 73
     1
 44
1.0
  0
LINE
  5
750A
330
6CCB
100
AcDbEntity
  8
OBJECT
100
AcDbLine
 10
97.44089112206914
 20
161.8232052553603
 30
0.0
 11
100.068343811185
 21
161.8232052553603
 31
0.0
  0
LINE
  5
750B
330
6CCB
100
AcDbEntity
  8
OBJECT
100
AcDbLine
 10
102.4947000239639
 20
161.8723940466203
 30
0.0
 11
105.0560770687534
 21
161.8723940466203
 31
0.0
  0
LINE
  5
750C
330
6CCB
100
AcDbEntity
  8
OBJECT
100
AcDbLine
 10
103.7753885463587
 20
161.8723940466203
 30
0.0
 11
103.7753885463587
 21
159.1107199807379
 31
0.0
  0
LINE
  5
750D
330
6CCB
100
AcDbEntity
  8
OBJECT
100
AcDbLine
 10
103.7753885463587
 20
159.1107199807379
 30
0.0
 11
109.2438409527898
 21
159.1107199807379
 31
0.0
  0
MTEXT
  5
750E
330
6CCB
100
AcDbEntity
  8
OBJECT
100
AcDbMText
 10
111.387423906769
 20
160.0709515182856
 30
0.0
 40
2.5
 41
43.16200496712077
 71
     1
 72
     5
  1
{\fMS UI Gothic|b0|i0|c128|p17;製造月度(但し10、11、12月はX,Y,Zとする）}
 73
     1
 44
1.0
  0
LINE
  5
7510
330
6CCB
100
AcDbEntity
  8
OBJECT
100
AcDbLine
 10
98.75461746662713
 20
161.8232052553603
 30
0.0
 11
98.75461746662713
 21
147.7136530805388
 31
0.0
  0
LINE
  5
7511
330
6CCB
100
AcDbEntity
  8
OBJECT
100
AcDbLine
 10
98.75461746662713
 20
147.7136530805388
 30
0.0
 11
109.5170276924392
 21
147.7136530805388
 31
0.0
  0
MTEXT
  5
7512
330
6CCB
100
AcDbEntity
  8
OBJECT
100
AcDbMText
 10
112.4336179348405
 20
149.5926160697129
 30
0.0
 40
2.5
 41
46.4697
 71
     1
 72
     5
  1
{\fMS UI Gothic|b0|i0|c128|p17;製造年度末尾（西暦）}
 73
     1
 44
1.0
  0
LEADER
  5
7513
330
6CCB
100
AcDbEntity
  8
OBJECT
100
AcDbLeader
  3
JIS
 73
     0
 74
     0
 75
     1
 40
3.352272727272727
 41
9.147727272727273
 76
     3
 10
91.91554223684784
 20
208.2334291058636
 30
0.0
 10
95.019091121422
 20
230.5449069922966
 30
0.0
 10
97.519091121422
 20
230.5449069922966
 30
0.0
340
7514
213
0.0
223
-1.25
233
0.0
1001
ACAD
1000
DSTYLE
1002
{
1070
   147
1040
0.0
1070
    77
1070
     0
1070
   141
1040
-7.0
1002
}
  0
MTEXT
  5
7514
102
{ACAD_REACTORS
330
7513
102
}
330
6CCB
100
AcDbEntity
  8
OBJECT
100
AcDbMText
 10
97.519091121422
 20
231.7949069922967
 30
0.0
 40
2.5
 41
0.0
 71
     1
 72
     1
  1
{\fMS UI Gothic|b0|i0|c128|p17;K表記}
 73
     1
 44
1.0
  0
VIEWPORT
  5
7840
330
7838
100
AcDbEntity
 67
     1
  8
0
100
AcDbViewport
 10
143.4359283447265
 20
99.95958042144776
 30
0.0
 40
364.0601245002068
 41
222.1517806396484
 68
     1
 69
     1
 12
143.4359283447265
 22
99.95958042144776
 13
0.0
 23
0.0
 14
10.0
 24
10.0
 15
10.0
 25
10.0
 16
0.0
 26
0.0
 36
1.0
 17
0.0
 27
0.0
 37
0.0
 42
50.0
 43
0.0
 44
0.0
 45
222.1517806396484
 50
0.0
 51
0.0
 72
   100
 90
    32800
  1

281
     0
 71
     1
 74
     0
110
0.0
120
0.0
130
0.0
111
1.0
121
0.0
131
0.0
112
0.0
122
1.0
132
0.0
 79
     0
146
0.0
  0
ENDSEC
  0
SECTION
  2
OBJECTS
  0
DICTIONARY
  5
6CBF
330
0
100
AcDbDictionary
281
     1
  3
ACAD_GROUP
350
6CC0
  3
ACAD_IMAGE_VARS
350
7159
  3
ACAD_LAYOUT
350
6EEF
  3
ACAD_MLINESTYLE
350
6CC1
  3
ACAD_PLOTSETTINGS
350
6EF0
  3
ACAD_PLOTSTYLENAME
350
6EED
  3
ACDBVARIABLEDICTIONARY
350
6E17
  3
CONTENTDICTIONARY
350
6E9E
  3
DWGPROPS
350
71F9
  0
DICTIONARY
  5
6CC0
102
{ACAD_REACTORS
330
6CBF
102
}
330
6CBF
100
AcDbDictionary
281
     1
  0
RASTERVARIABLES
  5
7159
102
{ACAD_REACTORS
330
6CBF
102
}
330
6CBF
100
AcDbRasterVariables
 90
        0
 70
     1
 71
     1
 72
     0
  0
DICTIONARY
  5
6EEF
102
{ACAD_REACTORS
330
6CBF
102
}
330
6CBF
100
AcDbDictionary
281
     1
  3
Model
350
6EF1
  3
ﾚｲｱｳﾄ1
350
7839
  0
DICTIONARY
  5
6CC1
102
{ACAD_REACTORS
330
6CBF
102
}
330
6CBF
100
AcDbDictionary
281
     1
  3
STANDARD
350
6CCE
  0
DICTIONARY
  5
6EF0
102
{ACAD_REACTORS
330
6CBF
102
}
330
6CBF
100
AcDbDictionary
281
     1
  0
ACDBDICTIONARYWDFLT
  5
6EED
102
{ACAD_REACTORS
330
6CBF
102
}
330
6CBF
100
AcDbDictionary
281
     1
  3
Normal
350
6EEE
100
AcDbDictionaryWithDefault
340
6EEE
  0
DICTIONARY
  5
6E17
102
{ACAD_REACTORS
330
6CBF
102
}
330
6CBF
100
AcDbDictionary
281
     1
  3
DIMASSOC
350
7812
  3
SORTENTS
350
6E18
  0
DICTIONARY
  5
6E9E
102
{ACAD_REACTORS
330
6CBF
102
}
330
6CBF
100
AcDbDictionary
281
     1
  0
XRECORD
  5
71F9
102
{ACAD_REACTORS
330
6CBF
102
}
330
6CBF
100
AcDbXrecord
280
     1
  1
DWGPROPS COOKIE
  2

  3

  4

  6

  7

  8

  9

300
=
301
=
302
=
303
=
304
=
305
=
306
=
307
=
308
=
309
=
 40
0.096335300925926
 41
2451396.923259953
 42
2452116.45575625
  1

 90
        0
  0
LAYOUT
  5
6EF1
102
{ACAD_REACTORS
330
6EEF
102
}
330
6EEF
100
AcDbPlotSettings
  1

  2
HP DeskJet 1120C Printer
  4

  6

 40
0.0
 41
0.0
 42
0.0
 43
0.0
 44
0.0
 45
0.0
 46
0.0
 47
0.0
 48
0.0
 49
0.0
140
0.0
141
0.0
142
1.0
143
1.0
 70
  1712
 72
     0
 73
     0
 74
     0
  7

 75
     0
147
1.0
148
0.0
149
0.0
100
AcDbLayout
  1
Model
 70
     1
 71
     0
 10
0.0
 20
0.0
 11
12.0
 21
9.0
 12
0.0
 22
0.0
 32
0.0
 14
0.0
 24
0.0
 34
0.0
 15
0.0
 25
0.0
 35
0.0
146
0.0
 13
0.0
 23
0.0
 33
0.0
 16
1.0
 26
0.0
 36
0.0
 17
0.0
 27
1.0
 37
0.0
 76
     0
330
6CCB
  0
LAYOUT
  5
7839
102
{ACAD_REACTORS
330
6EEF
102
}
330
6EEF
100
AcDbPlotSettings
  1

  2
自動 Brother DCP-7010 USB Printer (URAMAN 上)
  4
A4
  6

 40
5.027083396911621
 41
5.027085304260253
 42
5.027084350585937
 43
5.027069091796875
 44
209.9733276367187
 45
296.9259948730469
 46
0.0
 47
0.0
 48
0.0
 49
0.0
140
0.0
141
0.0
142
1.0
143
1.0
 70
   688
 72
     1
 73
     1
 74
     5
  7

 75
     0
147
1.0
148
0.0
149
0.0
100
AcDbLayout
  1
ﾚｲｱｳﾄ1
 70
     1
 71
     1
 10
-5.027069091796875
 20
-5.027083396911621
 11
291.89892578125
 21
204.9462442398071
 12
0.0
 22
0.0
 32
0.0
 14
1.000000000000000E+20
 24
1.000000000000000E+20
 34
1.000000000000000E+20
 15
-1.000000000000000E+20
 25
-1.000000000000000E+20
 35
-1.000000000000000E+20
146
0.0
 13
0.0
 23
0.0
 33
0.0
 16
1.0
 26
0.0
 36
0.0
 17
0.0
 27
1.0
 37
0.0
 76
     0
330
7838
331
7840
  0
MLINESTYLE
  5
6CCE
102
{ACAD_REACTORS
330
6CC1
102
}
330
6CC1
100
AcDbMlineStyle
  2
STANDARD
 70
     0
  3

 62
     0
 51
90.0
 52
90.0
 71
     2
 49
0.5
 62
   256
  6
BYLAYER
 49
-0.5
 62
   256
  6
BYLAYER
  0
ACDBPLACEHOLDER
  5
6EEE
102
{ACAD_REACTORS
330
6EED
102
}
330
6EED
  0
DICTIONARYVAR
  5
7812
102
{ACAD_REACTORS
330
6E17
102
}
330
6E17
100
DictionaryVariables
280
     0
  1
1
  0
DICTIONARYVAR
  5
6E18
102
{ACAD_REACTORS
330
6E17
102
}
330
6E17
100
DictionaryVariables
280
     0
  1
97
  0
ENDSEC
  0
EOF
