  0
SECTION
  2
HEADER
  9
$ACADVER
  1
AC1015
  9
$ACADMAINTVER
 70
    13
  9
$DWGCODEPAGE
  3
ANSI_932
  9
$INSBASE
 10
0.0
 20
0.0
 30
0.0
  9
$EXTMIN
 10
-115.0066498251869
 20
-16.89930534468129
 30
0.0
  9
$EXTMAX
 10
155.7657946417329
 20
85.18060481572574
 30
0.0
  9
$LIMMIN
 10
0.0
 20
0.0
  9
$LIMMAX
 10
297.0
 20
210.0
  9
$ORTHOMODE
 70
     1
  9
$REGENMODE
 70
     1
  9
$FILLMODE
 70
     1
  9
$QTEXTMODE
 70
     0
  9
$MIRRTEXT
 70
     1
  9
$LTSCALE
 40
20.0
  9
$ATTMODE
 70
     1
  9
$TEXTSIZE
 40
3.5
  9
$TRACEWID
 40
1.0
  9
$TEXTSTYLE
  7
STANDARD
  9
$CLAYER
  8
0
  9
$CELTYPE
  6
CENTER2
  9
$CECOLOR
 62
   256
  9
$CELTSCALE
 40
1.0
  9
$DISPSILH
 70
     0
  9
$DIMSCALE
 40
1.0
  9
$DIMASZ
 40
2.5
  9
$DIMEXO
 40
1.0
  9
$DIMDLI
 40
7.0
  9
$DIMRND
 40
0.0
  9
$DIMDLE
 40
0.0
  9
$DIMEXE
 40
1.0
  9
$DIMTP
 40
0.0
  9
$DIMTM
 40
0.0
  9
$DIMTXT
 40
2.5
  9
$DIMCEN
 40
0.0
  9
$DIMTSZ
 40
0.0
  9
$DIMTOL
 70
     0
  9
$DIMLIM
 70
     0
  9
$DIMTIH
 70
     0
  9
$DIMTOH
 70
     0
  9
$DIMSE1
 70
     0
  9
$DIMSE2
 70
     0
  9
$DIMTAD
 70
     1
  9
$DIMZIN
 70
     8
  9
$DIMBLK
  1

  9
$DIMASO
 70
     1
  9
$DIMSHO
 70
     1
  9
$DIMPOST
  1

  9
$DIMAPOST
  1

  9
$DIMALT
 70
     0
  9
$DIMALTD
 70
     2
  9
$DIMALTF
 40
0.0394
  9
$DIMLFAC
 40
1.0
  9
$DIMTOFL
 70
     1
  9
$DIMTVP
 40
0.0
  9
$DIMTIX
 70
     0
  9
$DIMSOXD
 70
     1
  9
$DIMSAH
 70
     0
  9
$DIMBLK1
  1

  9
$DIMBLK2
  1

  9
$DIMSTYLE
  2
JIS
  9
$DIMCLRD
 70
     5
  9
$DIMCLRE
 70
     5
  9
$DIMCLRT
 70
     5
  9
$DIMTFAC
 40
1.0
  9
$DIMGAP
 40
0.7
  9
$DIMJUST
 70
     0
  9
$DIMSD1
 70
     0
  9
$DIMSD2
 70
     0
  9
$DIMTOLJ
 70
     1
  9
$DIMTZIN
 70
     0
  9
$DIMALTZ
 70
     0
  9
$DIMALTTZ
 70
     0
  9
$DIMUPT
 70
     0
  9
$DIMDEC
 70
     4
  9
$DIMTDEC
 70
     4
  9
$DIMALTU
 70
     2
  9
$DIMALTTD
 70
     2
  9
$DIMTXSTY
  7
STANDARD
  9
$DIMAUNIT
 70
     0
  9
$DIMADEC
 70
     0
  9
$DIMALTRND
 40
0.0
  9
$DIMAZIN
 70
     0
  9
$DIMDSEP
 70
    46
  9
$DIMATFIT
 70
     3
  9
$DIMFRAC
 70
     0
  9
$DIMLDRBLK
  1

  9
$DIMLUNIT
 70
     2
  9
$DIMLWD
 70
    -2
  9
$DIMLWE
 70
    -2
  9
$DIMTMOVE
 70
     0
  9
$LUNITS
 70
     2
  9
$LUPREC
 70
     4
  9
$SKETCHINC
 40
1.0
  9
$FILLETRAD
 40
0.5
  9
$AUNITS
 70
     0
  9
$AUPREC
 70
     0
  9
$MENU
  1
acad
  9
$ELEVATION
 40
0.0
  9
$PELEVATION
 40
0.0
  9
$THICKNESS
 40
0.0
  9
$LIMCHECK
 70
     0
  9
$CHAMFERA
 40
10.0
  9
$CHAMFERB
 40
10.0
  9
$CHAMFERC
 40
0.0
  9
$CHAMFERD
 40
0.0
  9
$SKPOLY
 70
     1
  9
$TDCREATE
 40
2451865.588523379
  9
$TDUCREATE
 40
2451865.213523379
  9
$TDUPDATE
 40
2454572.627722071
  9
$TDUUPDATE
 40
2454572.252722072
  9
$TDINDWG
 40
1.0011691898
  9
$TDUSRTIMER
 40
1.0011691898
  9
$USRTIMER
 70
     1
  9
$ANGBASE
 50
0.0
  9
$ANGDIR
 70
     0
  9
$PDMODE
 70
     0
  9
$PDSIZE
 40
0.0
  9
$PLINEWID
 40
0.0
  9
$SPLFRAME
 70
     0
  9
$SPLINETYPE
 70
     6
  9
$SPLINESEGS
 70
     8
  9
$HANDSEED
  5
89CB
  9
$SURFTAB1
 70
     6
  9
$SURFTAB2
 70
     6
  9
$SURFTYPE
 70
     6
  9
$SURFU
 70
     6
  9
$SURFV
 70
     6
  9
$UCSBASE
  2

  9
$UCSNAME
  2

  9
$UCSORG
 10
0.0
 20
0.0
 30
0.0
  9
$UCSXDIR
 10
1.0
 20
0.0
 30
0.0
  9
$UCSYDIR
 10
0.0
 20
1.0
 30
0.0
  9
$UCSORTHOREF
  2

  9
$UCSORTHOVIEW
 70
     0
  9
$UCSORGTOP
 10
0.0
 20
0.0
 30
0.0
  9
$UCSORGBOTTOM
 10
0.0
 20
0.0
 30
0.0
  9
$UCSORGLEFT
 10
0.0
 20
0.0
 30
0.0
  9
$UCSORGRIGHT
 10
0.0
 20
0.0
 30
0.0
  9
$UCSORGFRONT
 10
0.0
 20
0.0
 30
0.0
  9
$UCSORGBACK
 10
0.0
 20
0.0
 30
0.0
  9
$PUCSBASE
  2

  9
$PUCSNAME
  2

  9
$PUCSORG
 10
0.0
 20
0.0
 30
0.0
  9
$PUCSXDIR
 10
1.0
 20
0.0
 30
0.0
  9
$PUCSYDIR
 10
0.0
 20
1.0
 30
0.0
  9
$PUCSORTHOREF
  2

  9
$PUCSORTHOVIEW
 70
     0
  9
$PUCSORGTOP
 10
0.0
 20
0.0
 30
0.0
  9
$PUCSORGBOTTOM
 10
0.0
 20
0.0
 30
0.0
  9
$PUCSORGLEFT
 10
0.0
 20
0.0
 30
0.0
  9
$PUCSORGRIGHT
 10
0.0
 20
0.0
 30
0.0
  9
$PUCSORGFRONT
 10
0.0
 20
0.0
 30
0.0
  9
$PUCSORGBACK
 10
0.0
 20
0.0
 30
0.0
  9
$USERI1
 70
     0
  9
$USERI2
 70
     0
  9
$USERI3
 70
     0
  9
$USERI4
 70
     0
  9
$USERI5
 70
     0
  9
$USERR1
 40
0.0
  9
$USERR2
 40
0.0
  9
$USERR3
 40
0.0
  9
$USERR4
 40
0.0
  9
$USERR5
 40
0.0
  9
$WORLDVIEW
 70
     1
  9
$SHADEDGE
 70
     3
  9
$SHADEDIF
 70
    70
  9
$TILEMODE
 70
     1
  9
$MAXACTVP
 70
    48
  9
$PINSBASE
 10
0.0
 20
0.0
 30
0.0
  9
$PLIMCHECK
 70
     0
  9
$PEXTMIN
 10
7.656745581039785
 20
0.0
 30
0.0
  9
$PEXTMAX
 10
297.0
 20
210.0
 30
0.0
  9
$PLIMMIN
 10
4.359602856504904
 20
-3.279707020541938
  9
$PLIMMAX
 10
310.8111762783253
 20
213.2869804563788
  9
$UNITMODE
 70
     0
  9
$VISRETAIN
 70
     1
  9
$PLINEGEN
 70
     0
  9
$PSLTSCALE
 70
     0
  9
$TREEDEPTH
 70
  3020
  9
$CMLSTYLE
  2
STANDARD
  9
$CMLJUST
 70
     0
  9
$CMLSCALE
 40
1.0
  9
$PROXYGRAPHICS
 70
     1
  9
$MEASUREMENT
 70
     1
  9
$CELWEIGHT
370
    -1
  9
$ENDCAPS
280
     0
  9
$JOINSTYLE
280
     0
  9
$LWDISPLAY
290
     1
  9
$INSUNITS
 70
     0
  9
$HYPERLINKBASE
  1

  9
$STYLESHEET
  1

  9
$XEDIT
290
     1
  9
$CEPSNTYPE
380
     0
  9
$PSTYLEMODE
290
     1
  9
$FINGERPRINTGUID
  2
{CC39C840-489A-11D5-97DA-0000F45FD7A9}
  9
$VERSIONGUID
  2
{5D8016BE-B6AC-41CB-B1F7-12A10378B155}
  9
$EXTNAMES
290
     1
  9
$PSVPSCALE
 40
0.0
  9
$OLESTARTUP
290
     0
  0
ENDSEC
  0
SECTION
  2
CLASSES
  0
CLASS
  1
LWPOLYLINE
  2
AcDbPolyline
  3
AutoCAD 2000
 90
    32768
280
     0
281
     1
  0
CLASS
  1
ACDBDICTIONARYWDFLT
  2
AcDbDictionaryWithDefault
  3
AutoCAD 2000
 90
        0
280
     0
281
     0
  0
CLASS
  1
ACDBPLACEHOLDER
  2
AcDbPlaceHolder
  3
AutoCAD 2000
 90
        0
280
     0
281
     0
  0
CLASS
  1
LAYOUT
  2
AcDbLayout
  3
AutoCAD 2000
 90
        0
280
     0
281
     0
  0
CLASS
  1
DICTIONARYVAR
  2
AcDbDictionaryVar
  3
AutoCAD 2000
 90
        0
280
     0
281
     0
  0
ENDSEC
  0
SECTION
  2
TABLES
  0
TABLE
  2
VPORT
  5
7436
330
0
100
AcDbSymbolTable
 70
     2
  0
VPORT
  5
89CA
330
7436
100
AcDbSymbolTableRecord
100
AcDbViewportTableRecord
  2
*Active
 70
     0
 10
0.0
 20
0.0
 11
1.0
 21
1.0
 12
41.47277847139449
 22
34.14611230620215
 13
0.0
 23
0.0
 14
1.0
 24
1.0
 15
1.0
 25
1.0
 16
0.0
 26
0.0
 36
1.0
 17
0.0
 27
0.0
 37
0.0
 40
150.4696141066462
 41
2.102888086642599
 42
50.0
 43
0.0
 44
0.0
 50
0.0
 51
0.0
 71
     0
 72
   100
 73
     1
 74
     0
 75
     0
 76
     1
 77
     0
 78
     0
281
     0
 65
     1
110
0.0
120
0.0
130
0.0
111
1.0
121
0.0
131
0.0
112
0.0
122
1.0
132
0.0
 79
     0
146
0.0
  0
ENDTAB
  0
TABLE
  2
LTYPE
  5
7433
330
0
100
AcDbSymbolTable
 70
     6
  0
LTYPE
  5
7440
330
7433
100
AcDbSymbolTableRecord
100
AcDbLinetypeTableRecord
  2
BYBLOCK
 70
     0
  3

 72
    65
 73
     0
 40
0.0
  0
LTYPE
  5
7441
330
7433
100
AcDbSymbolTableRecord
100
AcDbLinetypeTableRecord
  2
BYLAYER
 70
     0
  3

 72
    65
 73
     0
 40
0.0
  0
LTYPE
  5
7442
330
7433
100
AcDbSymbolTableRecord
100
AcDbLinetypeTableRecord
  2
CONTINUOUS
 70
     0
  3
Solid line
 72
    65
 73
     0
 40
0.0
  0
LTYPE
  5
7C28
330
7433
100
AcDbSymbolTableRecord
100
AcDbLinetypeTableRecord
  2
CENTER2
 70
     0
  3
Center (.5x) ___ _ ___ _ ___ _ ___ _ ___ _ ___
 72
    65
 73
     4
 40
28.57499999999999
 49
19.05
 74
     0
 49
-3.174999999999999
 74
     0
 49
3.174999999999999
 74
     0
 49
-3.174999999999999
 74
     0
  0
LTYPE
  5
7C32
330
7433
100
AcDbSymbolTableRecord
100
AcDbLinetypeTableRecord
  2
DASHED2
 70
     0
  3
Dashed (.5x) _ _ _ _ _ _ _ _ _ _ _ _ _ _ _ _ _
 72
    65
 73
     2
 40
9.524999999999998
 49
6.349999999999999
 74
     0
 49
-3.174999999999999
 74
     0
  0
LTYPE
  5
7C34
330
7433
100
AcDbSymbolTableRecord
100
AcDbLinetypeTableRecord
  2
DOT
 70
     0
  3
Dot . . . . . . . . . . . . . . . . . . . . . .
 72
    65
 73
     2
 40
6.349999999999999
 49
0.0
 74
     0
 49
-6.349999999999999
 74
     0
  0
LTYPE
  5
7C36
330
7433
100
AcDbSymbolTableRecord
100
AcDbLinetypeTableRecord
  2
ACAD_ISO02W100
 70
     0
  3
ISO dash __ __ __ __ __ __ __ __ __ __ __ __ __
 72
    65
 73
     2
 40
15.0
 49
12.0
 74
     0
 49
-3.0
 74
     0
  0
LTYPE
  5
849B
330
7433
100
AcDbSymbolTableRecord
100
AcDbLinetypeTableRecord
  2
ACAD_ISO10W100
 70
     0
  3
ISO dash dot __ . __ . __ . __ . __ . __ . __ .
 72
    65
 73
     4
 40
18.5
 49
12.0
 74
     0
 49
-3.0
 74
     0
 49
0.5
 74
     0
 49
-3.0
 74
     0
  0
ENDTAB
  0
TABLE
  2
LAYER
  5
7430
330
0
100
AcDbSymbolTable
 70
     4
  0
LAYER
  5
743D
330
7430
100
AcDbSymbolTableRecord
100
AcDbLayerTableRecord
  2
0
 70
     0
 62
     7
  6
CONTINUOUS
370
    -3
390
7BFD
  0
LAYER
  5
744E
330
7430
100
AcDbSymbolTableRecord
100
AcDbLayerTableRecord
  2
DEFPOINTS
 70
     0
 62
     7
  6
CONTINUOUS
290
     0
370
    -3
390
7BFD
  0
LAYER
  5
744F
330
7430
100
AcDbSymbolTableRecord
100
AcDbLayerTableRecord
  2
OBJECT
 70
     0
 62
     7
  6
CONTINUOUS
370
    -3
390
7BFD
  0
LAYER
  5
7B17
330
7430
100
AcDbSymbolTableRecord
100
AcDbLayerTableRecord
  2
1
 70
     0
 62
     7
  6
CONTINUOUS
370
    -3
390
7BFD
  0
ENDTAB
  0
TABLE
  2
STYLE
  5
7431
330
0
100
AcDbSymbolTable
 70
     4
  0
STYLE
  5
743E
330
7431
100
AcDbSymbolTableRecord
100
AcDbTextStyleTableRecord
  2
STANDARD
 70
     0
 40
0.0
 41
1.0
 50
0.0
 71
     0
 42
3.5
  3
txt
  4

  0
STYLE
  5
744A
330
7431
100
AcDbSymbolTableRecord
100
AcDbTextStyleTableRecord
  2
ADESK1
 70
     0
 40
0.0
 41
1.0
 50
0.0
 71
     0
 42
5.0
  3
romans
  4
bigfont
  0
STYLE
  5
7B18
330
7431
100
AcDbSymbolTableRecord
100
AcDbTextStyleTableRecord
  2
STYLE1
 70
     0
 40
0.0
 41
1.0
 50
0.0
 71
     0
 42
2.5
  3
txt.shx
  4

  0
STYLE
  5
7C27
330
7431
100
AcDbSymbolTableRecord
100
AcDbTextStyleTableRecord
  2

 70
     1
 40
0.0
 41
1.0
 50
0.0
 71
     0
 42
3.5
  3
ltypeshp.shx
  4

  0
ENDTAB
  0
TABLE
  2
VIEW
  5
7434
330
0
100
AcDbSymbolTable
 70
     0
  0
ENDTAB
  0
TABLE
  2
UCS
  5
7435
330
0
100
AcDbSymbolTable
 70
     0
  0
ENDTAB
  0
TABLE
  2
APPID
  5
7437
330
0
100
AcDbSymbolTable
 70
     5
  0
APPID
  5
743F
330
7437
100
AcDbSymbolTableRecord
100
AcDbRegAppTableRecord
  2
ACAD
 70
     0
  0
APPID
  5
7539
330
7437
100
AcDbSymbolTableRecord
100
AcDbRegAppTableRecord
  2
CONTENTBLOCKDESCRIPTION
 70
     0
  0
APPID
  5
7544
330
7437
100
AcDbSymbolTableRecord
100
AcDbRegAppTableRecord
  2
CONTENTBLOCKICON
 70
     0
  0
APPID
  5
754F
330
7437
100
AcDbSymbolTableRecord
100
AcDbRegAppTableRecord
  2
CONTENTTABDATA
 70
     0
  0
APPID
  5
7550
330
7437
100
AcDbSymbolTableRecord
100
AcDbRegAppTableRecord
  2
CONTENTCURRENTTAB
 70
     0
  0
ENDTAB
  0
TABLE
  2
DIMSTYLE
  5
7438
330
0
100
AcDbSymbolTable
 70
     5
100
AcDbDimStyleTable
 71
     2
340
744D
340
753A
  0
DIMSTYLE
105
744D
102
{ACAD_REACTORS
330
82DF
330
831F
330
833E
330
836A
330
8396
330
83D0
330
83F8
330
8651
330
8676
330
8683
102
}
330
7438
100
AcDbSymbolTableRecord
100
AcDbDimStyleTableRecord
  2
JIS
 70
     0
 41
2.5
 42
1.0
 43
7.0
 44
1.0
 73
     0
 74
     0
 77
     1
 78
     8
140
2.5
141
0.0
143
0.0394
147
0.7
172
     1
175
     1
176
     5
177
     5
178
     5
340
743E
  0
DIMSTYLE
105
753A
330
7438
100
AcDbSymbolTableRecord
100
AcDbDimStyleTableRecord
  2
STANDARD
 70
     0
340
743E
  0
DIMSTYLE
105
87A9
330
7438
100
AcDbSymbolTableRecord
100
AcDbDimStyleTableRecord
  2
ｺﾋﾟｰ - JIS
 70
     0
 41
2.5
 42
1.0
 43
7.0
 44
1.0
 73
     0
 74
     0
 77
     2
 78
     8
140
2.5
141
0.0
143
0.0394
147
0.5
172
     1
174
     1
175
     1
176
     5
177
     5
178
     5
271
     1
272
     1
340
743E
  0
DIMSTYLE
105
87AA
330
7438
100
AcDbSymbolTableRecord
100
AcDbDimStyleTableRecord
  2
ｺﾋﾟｰ(2) - JIS
 70
     0
 41
2.5
 42
1.0
 43
7.0
 44
1.0
 73
     0
 74
     0
 77
     2
 78
     8
140
2.5
141
0.0
143
0.0394
147
0.5
172
     1
174
     1
175
     1
176
     5
177
     5
178
     5
271
     1
272
     1
340
743E
  0
DIMSTYLE
105
87D8
102
{ACAD_REACTORS
330
8844
102
}
330
7438
100
AcDbSymbolTableRecord
100
AcDbDimStyleTableRecord
  2
JIS$0
 70
     0
 41
2.5
 42
1.0
 43
7.0
 44
1.0
 73
     0
 74
     0
 77
     2
 78
     8
140
2.5
141
0.0
143
0.0394
147
0.0
172
     1
174
     1
175
     1
340
743E
  0
ENDTAB
  0
TABLE
  2
BLOCK_RECORD
  5
742F
330
0
100
AcDbSymbolTable
 70
    94
  0
BLOCK_RECORD
  5
7446
330
742F
100
AcDbSymbolTableRecord
100
AcDbBlockTableRecord
  2
*MODEL_SPACE
340
7C00
  0
BLOCK_RECORD
  5
7443
330
742F
100
AcDbSymbolTableRecord
100
AcDbBlockTableRecord
  2
*PAPER_SPACE
340
7C01
  0
BLOCK_RECORD
  5
745C
330
742F
100
AcDbSymbolTableRecord
100
AcDbBlockTableRecord
  2
TITLE_BLOCK
340
0
  0
BLOCK_RECORD
  5
753B
330
742F
100
AcDbSymbolTableRecord
100
AcDbBlockTableRecord
  2
GENERATOR_AC
340
0
310
2800000020000000200000000100040000000000000200000000000000000000000000000000000000000000000080000080000000808000800000008000800080800000C0C0C000808080000000FF0000FF000000FFFF00FF000000FF00FF00FFFF0000FFFFFF00FFFFFFFFFFFFFFFFFFFFFFFFFFFFFFFFFFFFFFFFFFFFFF
310
FFFFFFFFFFFFFFFFFFFFFFFFFFFFFFFFFFFFFFFFFFFFFFFFFFFFFFFFFFFFFFFFFFFFFFFFFFFFFFFFFFFFFFFFFFFFFFFF000FFFFFFFFFFFFFFFFFFFFFFFFFF000FFF0000FFFFFFFFFFFFFFFFFFFF00FFFFFFFFFF00FFFFFFFFFFFFFFFFF0FFFFFFFFFFFFFF0FFFFFFFFFFFFFFF0FFFFFFFFFFFFFFFF0FFFFFFFFFFFFF0FFFFF
310
FFFFFFFFFFFFF0FFFFFFFFFFF0FFFFFFFFFFFFFFFFFFFF0FFFFFFFFFF0FFFFFFFFFFFFFFFFFFFF0FFFFFFFFF0FFFFFFFFFFFF00000FFFFF0FFFFFFFF0FFFFFFFFFFF0FFFFF0FFFF0FFFFFFFF0FFFFFFFFFFF0FFFFFF0FFF0FFFFFFFF0FFFFFFFFFF0FFFFFFF0FFF0FFFF00000FFFFFFFFFF00FFFFFFFFFF0000FFFFF0FFF0F
310
FFFFF0FFFFFFFFFFF0FFFFFFFF0FFF0FFFFFF0FFFFFFFFFFF0FFFFFFFF0FFFF00FFF0FFFFFFFFFFFF0FFFFFFFFF0FFFFF000FFFFFFFFFFFF0FFFFFFFFFF0FFFFFFFFFFFFFFFFFFFF0FFFFFFFFFFF0FFFFFFFFFFFFFFFFFF0FFFFFFFFFFFFF0FFFFFFFFFFFFFFFF0FFFFFFFFFFFFFFF0FFFFFFFFFFFFFF0FFFFFFFFFFFFFFFF
310
F0FFFFFFFFFFFF0FFFFFFFFFFFFFFFFFFF00FFFFFFFF00FFFFFFFFFFFFFFFFFFFFFF00000000FFFFFFFFFFFFFFFFFFFFFFFFFFFFFFFFFFFFFFFFFFFFFFFFFFFFFFFFFFFFFFFFFFFFFFFFFFFFFFFFFFFFFFFFFFFFFFFFFFFFFFFFFFFFFFFFFFFFFFFFFFFFFFFFFFFFFFFFFFFF
  0
BLOCK_RECORD
  5
755C
330
742F
100
AcDbSymbolTableRecord
100
AcDbBlockTableRecord
  2
CAPACITOR
340
0
310
2800000020000000200000000100040000000000000200000000000000000000000000000000000000000000000080000080000000808000800000008000800080800000C0C0C000808080000000FF0000FF000000FFFF00FF000000FF00FF00FFFF0000FFFFFF00FFFFFFFFFFFFFFFFFFFFFFFFFFFFFFFFFFFFFFFFFFFFFF
310
FFFFFFFFFFFFFFFFFFFFFFFFFFFFFFFFFFFFFFFFFFFFFFFFFFFFFFFFFFFFFFFFFFFFFFFFFFFFFFFFFFFFFFFFFFFFFFFFFFFFFFFFFFFFFFFFFFFFFFFFFFFFFFFFFFFFFFFFFFFFFFFFFFFFFFFFFFFFFFFFFFFFFFFFFFFFFFFFFFFFFFFFFFFFFFFFFFFFFFFFFFFFFFFFFFFFFFFFFFFFFF0FFFFFFFFFFFFFFFFFFFFFFFFFFFFFFF
310
0FFFFFF0FFFFFFFFFFFFFFFFFFFFFFFF0FFFFFF0FFFFFFFFFFFFFFFFFFFFFFFF0FFFFF0FFFFFFFFFFFFFFFFFFFFFFFFF0FFFFF0FFFFFFFFFFFFFFFFFFFFFFFFF0FFFFF0FFFFFFFFFFFFFFFFFFFFFFFFF0FFFF0FFFFFFFFFFFFFFFFFFFFFFFFFF0FFFF0FFFFFFFFFFFFFFF000000000000FFFF00000000000000FFFFFFFFFFF
310
FF0FFFF0FFFFFFFFFFFFFFFFFFFFFFFFFF0FFFFF0FFFFFFFFFFFFFFFFFFFFFFFFF0FFFFF0FFFFFFFFFFFFFFFFFFFFFFFFF0FFFFF0FFFFFFFFFFFFFFFFFFFFFFFFF0FFFFF0FFFFFFFFFFFFFFFFFFFFFFFFF0FFFFFF0FFFFFFFFFFFFFFFFFFFFFFFF0FFFFFF0FFFFFFFFFFFFFFFFFFFFFFFFFFFFFFF0FFFFFFFFFFFFFFFFFFFF
310
FFFFFFFFFFFFFFFFFFFFFFFFFFFFFFFFFFFFFFFFFFFFFFFFFFFFFFFFFFFFFFFFFFFFFFFFFFFFFFFFFFFFFFFFFFFFFFFFFFFFFFFFFFFFFFFFFFFFFFFFFFFFFFFFFFFFFFFFFFFFFFFFFFFFFFFFFFFFFFFFFFFFFFFFFFFFFFFFFFFFFFFFFFFFFFFFFFFFFFFFFFFFFFFFFFFFFFFF
102
{BLKREFS
331
7B78
331
7B80
331
7B9F
331
7BAF
331
7BD2
102
}
  0
BLOCK_RECORD
  5
756F
330
742F
100
AcDbSymbolTableRecord
100
AcDbBlockTableRecord
  2
A$C5E0F3A14
340
0
  0
BLOCK_RECORD
  5
757F
330
742F
100
AcDbSymbolTableRecord
100
AcDbBlockTableRecord
  2
A$C51B93B19
340
0
102
{BLKREFS
331
758A
331
7653
331
7A1F
102
}
  0
BLOCK_RECORD
  5
7589
330
742F
100
AcDbSymbolTableRecord
100
AcDbBlockTableRecord
  2
A$C13C01A67
340
0
102
{BLKREFS
331
7A24
102
}
  0
BLOCK_RECORD
  5
7592
330
742F
100
AcDbSymbolTableRecord
100
AcDbBlockTableRecord
  2
A$C27CF61EB
340
0
102
{BLKREFS
331
7793
331
7A19
102
}
  0
BLOCK_RECORD
  5
759A
330
742F
100
AcDbSymbolTableRecord
100
AcDbBlockTableRecord
  2
A$C794D5BF7
340
0
102
{BLKREFS
331
779F
331
7A16
102
}
  0
BLOCK_RECORD
  5
759F
330
742F
100
AcDbSymbolTableRecord
100
AcDbBlockTableRecord
  2
A$C0BBB3E94
340
0
  0
BLOCK_RECORD
  5
75A7
330
742F
100
AcDbSymbolTableRecord
100
AcDbBlockTableRecord
  2
DIODE
340
0
310
2800000020000000200000000100040000000000000200000000000000000000000000000000000000000000000080000080000000808000800000008000800080800000C0C0C000808080000000FF0000FF000000FFFF00FF000000FF00FF00FFFF0000FFFFFF00FFFFFFFFFFFFFFFFFFFFFFFFFFFFFFFFFFFFFFFFFFFFFF
310
FFFFFFFFFFFFFFFFFFFFFFFFFFFFFFFFFFFFFFFFFFFFFFFFFFFFFFFFFFFFFFFFFFFFFFFFFFFFFFFFFFFFFFFFFFFFFFFFFFFFFFFFFFFFFFFFFFFFFFFFFFFFFFFFFFFFFFFFFFFFFFFFFFFFFFFFFFFFFF0FFFFFF0FFFFFFFFFFFFFFFFFFFFFFFF00FFFFF0FFFFFFFFFFFFFFFFFFFFFFFF00FFFFF0FFFFFFFFFFFFFFFFFFFFFFFF
310
000FFFF0FFFFFFFFFFFFFFFFFFFFFFFF0000FFF0FFFFFFFFFFFFFFFFFFFFFFFF0000FFF0FFFFFFFFFFFFFFFFFFFFFFFF00000FF0FFFFFFFFFFFFFFFFFFFFFFFF000000F0FFFFFFFFFFFFFFFFFFFFFFFF00000000FFFFFFFFFFFFFFFFFFFFFFFF00000000FFFFFFFFFFFFF000000000000000000000000000000FFFFFFFFFFF
310
FF00000000FFFFFFFFFFFFFFFFFFFFFFFF000000F0FFFFFFFFFFFFFFFFFFFFFFFF000000F0FFFFFFFFFFFFFFFFFFFFFFFF00000FF0FFFFFFFFFFFFFFFFFFFFFFFF0000FFF0FFFFFFFFFFFFFFFFFFFFFFFF000FFFF0FFFFFFFFFFFFFFFFFFFFFFFF000FFFF0FFFFFFFFFFFFFFFFFFFFFFFF00FFFFF0FFFFFFFFFFFFFFFFFFFF
310
FFFF0FFFFFFFFFFFFFFFFFFFFFFFFFFFFFFFFFFFFFFFFFFFFFFFFFFFFFFFFFFFFFFFFFFFFFFFFFFFFFFFFFFFFFFFFFFFFFFFFFFFFFFFFFFFFFFFFFFFFFFFFFFFFFFFFFFFFFFFFFFFFFFFFFFFFFFFFFFFFFFFFFFFFFFFFFFFFFFFFFFFFFFFFFFFFFFFFFFFFFFFFFFFFFFFFFFF
102
{BLKREFS
331
7B2A
331
7BA1
331
7BE1
102
}
  0
BLOCK_RECORD
  5
75BC
330
742F
100
AcDbSymbolTableRecord
100
AcDbBlockTableRecord
  2
GROUND
340
0
310
2800000020000000200000000100040000000000000200000000000000000000000000000000000000000000000080000080000000808000800000008000800080800000C0C0C000808080000000FF0000FF000000FFFF00FF000000FF00FF00FFFF0000FFFFFF00FFFFFFFFFFFFFFFFFFFFFFFFFFFFFFFFFFFFFFFFFFFFFF
310
FFFFFFFFFFFFFFFFFFFFFFFFFFFFFFFFFFFFFFFFFFFFFFFFFFFFFFFFFFFFFFFFFFFFFFFFFFFFFFFFFFFFFFFFFFFFFFFFFFFFFFFFFFFFFFFFFFFFFFFFFFFFFFFFFFFFFFFFFFFFFFFFFFFFFFFFFFFFFFFFFFFFFFFFFFFFFFFFFFFFFFFFFFFFFFFFFFFFFFFFFFFFFFFFFFFFFFFFFF000000000000000FFFFFFFFFFFFFFFFFFFFF
310
FFFFFFFFFFFFFFFFFFFFFFFFFFFFFFFFFFFFFFFFFFFFFFFFFFFFFFFFFFFFFFFFFFFFFFFFFFFFFFFFFFFFFFFFFFFFFFFFFFFFFFFFFFFFFFFFFFFFFFFFFFFFFFFFFFFFFFFFFFFFFFFFFFFFFFFFFFFFFFFFFFFFFFFFFFFFFFFFFFFFFFFFFFFFFFFFFFFFFFFFFFFFFFFFFFFFFFFFF00000000000000000000000FFFFFFFFFFFFFF
310
FFFFFFFFFFFFFFFFFFFFFFFFFFFFFFFFFFFFFFFFFFFFFFFFFFFFFFFFFFFFFFFFFFFFFFFFFFFFFFFFFFFFFFFFFFFFFFFFFFFFFFFFFFFFFFFFFFFFFFFFFFFFFFFFFFFFFFFFFFFFFFFFFFFFFFFFFFFFFFFFFFFFFFFFFFFFFFFFFFFFFF0000000000000000000000000000000FFFFFFFFFFFFFFFFFFFFFFFFFFFFFFFFFFFFFFFFF
310
FFFFFFFFFFFFFFFFFFFFFFFFFFFFFFFFFFFFFFFFFFFFFFFFFFFFFFFFFFFFFFFFFFFFFFFFFFFFFFFFFFFFFFFFFFFFFFFFFFFFFFFFFFFFFFFFFFFFFFFFFFFFFFFFFFFFFFFFFFFFFFFFFFFFFFFFFFFFFFFFFFFFFFFFFFFFFFFFFFFFFFFFFFFFFFFFFFFFFFFFFFFFFFFFFFFFFFFF
102
{BLKREFS
331
764D
331
76CB
331
78AE
331
7A2E
331
7B51
331
7B52
331
7B6F
331
7B77
331
7B79
331
7B85
331
7B8A
331
7B97
331
7BA9
331
7BB8
331
7BCA
102
}
  0
BLOCK_RECORD
  5
7647
330
742F
100
AcDbSymbolTableRecord
100
AcDbBlockTableRecord
  2
RESISTOR
340
0
310
2800000020000000200000000100040000000000000200000000000000000000000000000000000000000000000080000080000000808000800000008000800080800000C0C0C000808080000000FF0000FF000000FFFF00FF000000FF00FF00FFFF0000FFFFFF00FFFFFFFFFFFFFFFFFFFFFFFFFFFFFFFFFFFFFFFFFFFFFF
310
FFFFFFFFFFFFFFFFFFFFFFFFFFFFFFFFFFFFFFFFFFFFFFFFFFFFFFFFFFFFFFFFFFFFFFFFFFFFFFFFFFFFFFFFFFFFFFFFFFFFFFFFFFFFFFFFFFFFFFFFFFFFFFFFFFFFFFFFFFFFFFFFFFFFFFFFFFFFFFFFFFFFFFFFFFFFFFFFFFFFFFFFFFFFFFFFFFFFFFFFFFFFFFFFFFFFFFFFFFFFFFFFFFFFFFFFFFFFFFFFFFFFFFFFFFFFFF
310
FFFFFFFFFFFFFFFFFFFFFFFFFFFFFFFFFFFFFFFFFFFFFFFFFFFFFFFFFFFFFFFFFFFFFFFFFFFFFFFFFFFFFFFFFFFFFFFFFFFFFFFFFFFFFFFFFFFFFFFFFFFFFFFFFFFFFFFFFFFFFFFFFFFFFFFFFFFFFF0FFFFFF0FFFFFFF0FFFFFFFFFFFFFFF0F0FFFF0F0FFFFF0F0FFFFF00000FFF0FFF0FF0FFF0FFF0FFF0000FFFFFF0F0FF
310
FFF0F0FFFF0F0FFFFFFFFFFFFFFF0FFFFFFF0FFFFFF0FFFFFFFFFFFFFFFFFFFFFFFFFFFFFFFFFFFFFFFFFFFFFFFFFFFFFFFFFFFFFFFFFFFFFFFFFFFFFFFFFFFFFFFFFFFFFFFFFFFFFFFFFFFFFFFFFFFFFFFFFFFFFFFFFFFFFFFFFFFFFFFFFFFFFFFFFFFFFFFFFFFFFFFFFFFFFFFFFFFFFFFFFFFFFFFFFFFFFFFFFFFFFFFFFF
310
FFFFFFFFFFFFFFFFFFFFFFFFFFFFFFFFFFFFFFFFFFFFFFFFFFFFFFFFFFFFFFFFFFFFFFFFFFFFFFFFFFFFFFFFFFFFFFFFFFFFFFFFFFFFFFFFFFFFFFFFFFFFFFFFFFFFFFFFFFFFFFFFFFFFFFFFFFFFFFFFFFFFFFFFFFFFFFFFFFFFFFFFFFFFFFFFFFFFFFFFFFFFFFFFFFFFFFFF
102
{BLKREFS
331
7658
331
769C
331
7AF9
331
7B5B
331
7B69
331
7B6B
331
7B72
331
7B73
331
7B82
331
7B8D
331
7B8E
331
7BA0
331
7BA5
331
7BA7
331
7BAA
331
7BAD
331
7BB9
331
7BBA
331
7BE2
102
}
  0
BLOCK_RECORD
  5
764C
330
742F
100
AcDbSymbolTableRecord
100
AcDbBlockTableRecord
  2
A$C2ED258E6
340
0
102
{BLKREFS
331
7688
102
}
  0
BLOCK_RECORD
  5
7652
330
742F
100
AcDbSymbolTableRecord
100
AcDbBlockTableRecord
  2
A$C46D1588A
340
0
102
{BLKREFS
331
771F
102
}
  0
BLOCK_RECORD
  5
7657
330
742F
100
AcDbSymbolTableRecord
100
AcDbBlockTableRecord
  2
A$C71205D8A
340
0
102
{BLKREFS
331
76A3
331
772B
331
788C
102
}
  0
BLOCK_RECORD
  5
7661
330
742F
100
AcDbSymbolTableRecord
100
AcDbBlockTableRecord
  2
A$C57784720
340
0
  0
BLOCK_RECORD
  5
7675
330
742F
100
AcDbSymbolTableRecord
100
AcDbBlockTableRecord
  2
A$C4F002544
340
0
  0
BLOCK_RECORD
  5
7687
330
742F
100
AcDbSymbolTableRecord
100
AcDbBlockTableRecord
  2
A$C418015A2
340
0
102
{BLKREFS
331
76EA
102
}
  0
BLOCK_RECORD
  5
768F
330
742F
100
AcDbSymbolTableRecord
100
AcDbBlockTableRecord
  2
OPERATIONAL_AMPLIFIER
340
0
310
2800000020000000200000000100040000000000000200000000000000000000000000000000000000000000000080000080000000808000800000008000800080800000C0C0C000808080000000FF0000FF000000FFFF00FF000000FF00FF00FFFF0000FFFFFF00FFFFFFFFFFFFFFFFFFFFFFFFFFFFFFFFFFFFFFFFFFFFFF
310
FFFFFFFFFFFFFFFFFFFFFFFFFFFFFFFFFFFFFFFFFFFFFFFFFFFFFFFFFFFFFFFFFFFFFFFFFFFFFFFFFFFFFFFFFFFFFFFFFFFFFFFFFFFFFFFFFFFFFFFFFFFFFFFFFFFFFFFFFFFFFFFFFFFFFFFFFFFFFFFFFFFFFFFFFFFFFFFFFFFFFFFF00FFFFFFFFFFFFFFFFFFFFFFFFFFFFFF0F00FFFFFFFFFFFFFFFFFFFFFFFFFFFF000000
310
FFFFFFFFFFFFFFFFFFFF00000000F0FF00FFFFFFFFFFFFFFFFFFFFFFFF0000FFFF00FFFFFFFFFFFFFFFFFFFFFF0FFFFFFFFF00FFFFFFFFFFFFFFFFFFFF0FFFFFFFFFFF00FFFFFFFFFFFFFFFFFF0FFFFFFFFFFFFF00FFFFFFFFFFFFFFFF0FFFFFFFFFFFFFFF00FFFFFFFFFFFFFF0FFFFFFFFFFFFFFFFF0000000FFFFFFF0FFF
310
FFFFFFFFFFFFF00FFFFFFFFFFFFF0FFFFFFFFFFFFFF00FFFFFFFFFFFFFFF0FFFFFFFFFFFF00FFFFFFFFFFFFFFFFF0FFFFFFFFFF00FFFFFFFFFFFFFFFFFFF0FFFFFFFF00FFFFFFFFFFFFFFFFFFFFF0000FFF00FFFFFFFFFFFFFFFFF0000000FFFF00FFFFFFFFFFFFFFFFFFFFFFFFF0FF00FFFFFFFFFFFFFFFFFFFFFFFFFFF00
310
0FFFFFFFFFFFFFFFFFFFFFFFFFFFFF0FFFFFFFFFFFFFFFFFFFFFFFFFFFFFFFFFFFFFFFFFFFFFFFFFFFFFFFFFFFFFFFFFFFFFFFFFFFFFFFFFFFFFFFFFFFFFFFFFFFFFFFFFFFFFFFFFFFFFFFFFFFFFFFFFFFFFFFFFFFFFFFFFFFFFFFFFFFFFFFFFFFFFFFFFFFFFFFFFFFFFFFFF
102
{BLKREFS
331
76A8
331
7B76
331
7B8F
331
7BB1
102
}
  0
BLOCK_RECORD
  5
769B
330
742F
100
AcDbSymbolTableRecord
100
AcDbBlockTableRecord
  2
A$C4CEA4178
340
0
102
{BLKREFS
331
7711
102
}
  0
BLOCK_RECORD
  5
76A2
330
742F
100
AcDbSymbolTableRecord
100
AcDbBlockTableRecord
  2
A$C344F4B31
340
0
102
{BLKREFS
331
76F2
102
}
  0
BLOCK_RECORD
  5
76A7
330
742F
100
AcDbSymbolTableRecord
100
AcDbBlockTableRecord
  2
A$C558B31EE
340
0
  0
BLOCK_RECORD
  5
76BC
330
742F
100
AcDbSymbolTableRecord
100
AcDbBlockTableRecord
  2
A$C31202269
340
0
  0
BLOCK_RECORD
  5
76CA
330
742F
100
AcDbSymbolTableRecord
100
AcDbBlockTableRecord
  2
A$C3E1B27D2
340
0
102
{BLKREFS
331
76D4
331
7732
102
}
  0
BLOCK_RECORD
  5
76D3
330
742F
100
AcDbSymbolTableRecord
100
AcDbBlockTableRecord
  2
A$C51FA048C
340
0
  0
BLOCK_RECORD
  5
76D8
330
742F
100
AcDbSymbolTableRecord
100
AcDbBlockTableRecord
  2
A$C64EB79FF
340
0
  0
BLOCK_RECORD
  5
76E9
330
742F
100
AcDbSymbolTableRecord
100
AcDbBlockTableRecord
  2
A$C4644613C
340
0
102
{BLKREFS
331
7725
331
775D
331
7777
102
}
  0
BLOCK_RECORD
  5
76F1
330
742F
100
AcDbSymbolTableRecord
100
AcDbBlockTableRecord
  2
A$C110E6254
340
0
102
{BLKREFS
331
777E
331
777F
102
}
  0
BLOCK_RECORD
  5
76FC
330
742F
100
AcDbSymbolTableRecord
100
AcDbBlockTableRecord
  2
A$C637E7B7D
340
0
102
{BLKREFS
331
7781
331
77AD
331
786E
102
}
  0
BLOCK_RECORD
  5
7710
330
742F
100
AcDbSymbolTableRecord
100
AcDbBlockTableRecord
  2
A$C2D297485
340
0
102
{BLKREFS
331
77A7
102
}
  0
BLOCK_RECORD
  5
771E
330
742F
100
AcDbSymbolTableRecord
100
AcDbBlockTableRecord
  2
A$C2DC57CF5
340
0
  0
BLOCK_RECORD
  5
7724
330
742F
100
AcDbSymbolTableRecord
100
AcDbBlockTableRecord
  2
A$C63C8229C
340
0
  0
BLOCK_RECORD
  5
772A
330
742F
100
AcDbSymbolTableRecord
100
AcDbBlockTableRecord
  2
A$C7AEC2786
340
0
102
{BLKREFS
331
77B4
102
}
  0
BLOCK_RECORD
  5
7730
330
742F
100
AcDbSymbolTableRecord
100
AcDbBlockTableRecord
  2
A$C654674CB
340
0
102
{BLKREFS
331
7799
102
}
  0
BLOCK_RECORD
  5
7737
330
742F
100
AcDbSymbolTableRecord
100
AcDbBlockTableRecord
  2
A$C719B27FE
340
0
  0
BLOCK_RECORD
  5
773D
330
742F
100
AcDbSymbolTableRecord
100
AcDbBlockTableRecord
  2
A$C318D352C
340
0
  0
BLOCK_RECORD
  5
774B
330
742F
100
AcDbSymbolTableRecord
100
AcDbBlockTableRecord
  2
A$C161D09CF
340
0
  0
BLOCK_RECORD
  5
775C
330
742F
100
AcDbSymbolTableRecord
100
AcDbBlockTableRecord
  2
A$C1D544064
340
0
  0
BLOCK_RECORD
  5
7776
330
742F
100
AcDbSymbolTableRecord
100
AcDbBlockTableRecord
  2
A$C020D3176
340
0
102
{BLKREFS
331
7787
102
}
  0
BLOCK_RECORD
  5
777C
330
742F
100
AcDbSymbolTableRecord
100
AcDbBlockTableRecord
  2
A$C2738566D
340
0
  0
BLOCK_RECORD
  5
7786
330
742F
100
AcDbSymbolTableRecord
100
AcDbBlockTableRecord
  2
A$C020F535B
340
0
  0
BLOCK_RECORD
  5
7792
330
742F
100
AcDbSymbolTableRecord
100
AcDbBlockTableRecord
  2
A$C230F6899
340
0
102
{BLKREFS
331
7809
331
7880
331
789D
102
}
  0
BLOCK_RECORD
  5
7798
330
742F
100
AcDbSymbolTableRecord
100
AcDbBlockTableRecord
  2
A$C3BBE51F9
340
0
102
{BLKREFS
331
77D1
331
780A
331
78BC
102
}
  0
BLOCK_RECORD
  5
779E
330
742F
100
AcDbSymbolTableRecord
100
AcDbBlockTableRecord
  2
A$C2F7908D3
340
0
102
{BLKREFS
331
780C
331
787F
331
789E
102
}
  0
BLOCK_RECORD
  5
77A6
330
742F
100
AcDbSymbolTableRecord
100
AcDbBlockTableRecord
  2
A$C473E29B7
340
0
102
{BLKREFS
331
77BB
331
77D8
331
7AA3
102
}
  0
BLOCK_RECORD
  5
77AC
330
742F
100
AcDbSymbolTableRecord
100
AcDbBlockTableRecord
  2
A$C5E282CF1
340
0
102
{BLKREFS
331
77D7
331
7993
331
7AAA
102
}
  0
BLOCK_RECORD
  5
77B3
330
742F
100
AcDbSymbolTableRecord
100
AcDbBlockTableRecord
  2
A$C3D3513C1
340
0
102
{BLKREFS
331
77E7
331
77FD
331
78D9
331
795F
331
79A2
331
7AB0
102
}
  0
BLOCK_RECORD
  5
77BA
330
742F
100
AcDbSymbolTableRecord
100
AcDbBlockTableRecord
  2
A$C428705A6
340
0
102
{BLKREFS
331
77E1
331
78C9
331
791B
331
7955
331
79A0
331
7AAC
102
}
  0
BLOCK_RECORD
  5
77C0
330
742F
100
AcDbSymbolTableRecord
100
AcDbBlockTableRecord
  2
TRANSISTOR_NPN
340
0
310
2800000020000000200000000100040000000000000200000000000000000000000000000000000000000000000080000080000000808000800000008000800080800000C0C0C000808080000000FF0000FF000000FFFF00FF000000FF00FF00FFFF0000FFFFFF00FFFFFFFFFFFFFFFFFFFFFFFFFFFFFF00FFFFFFFFFFFFFF
310
F0FFFFFFFFFFFF000FFFFFFFFFFFFFFFF0FFFFFFFFF00000FFFFFFFFFFFFFFFFF0FFFFFFF000000FFFFFFFFFFFFFFFFFF0FFFFFFFF00000FFFFFFFFFFFFFFFFFF0FFFFFFF00000FFFFFFFFFFFFFFFFFFF0FFFFFF0FFF0FFFFFFFFFFFFFFFFFFFF0FFFF00FFFFFFFFFFFFFFFFFFFFFFFFF0FFF0FFFFFFFFFFFFFFFFFFFFFFFF
310
FFF0F00FFFFFFFFFFFFFFFFFFFFFFFFFFFF0FFFFFFFFFFFFFFFFFFFFFFFFFFFFFFF0FFFFFFFFFFFFFFFFFFFFFFFFFFFFFFF0FFFFFFFFFFFFFFFFFFFFFFFFFFFFFFF0FFFFFFFFFFFFFFFFFFFFFFFFFFFFFFF0FFFFFFFFFFFFFFFFFFFFFFFFFFFFFFF0FFFFFFFFFFFFFFFF0000000000000000FFFFFFFFFFFFFFFFFFFFFFFFFF
310
FFFFF0FFFFFFFFFFFFFFFFFFFFFFFFFFFFFFF0FFFFFFFFFFFFFFFFFFFFFFFFFFFFFFF0FFFFFFFFFFFFFFFFFFFFFFFFFFFFFFF00FFFFFFFFFFFFFFFFFFFFFFFFFFFFFF0F00FFFFFFFFFFFFFFFFFFFFFFFFFFFF0FFF0FFFFFFFFFFFFFFFFFFFFFFFFFFF0FFFF0FFFFFFFFFFFFFFFFFFFFFFFFFF0FFFFF00FFFFFFFFFFFFFFFFF
310
FFFFFFF0FFFFFFF0FFFFFFFFFFFFFFFFFFFFFFF0FFFFFFFF0FFFFFFFFFFFFFFFFFFFFFF0FFFFFFFFF00FFFFFFFFFFFFFFFFFFFF0FFFFFFFFFFF0FFFFFFFFFFFFFFFFFFF0FFFFFFFFFFFF0FFFFFFFFFFFFFFFFFF0FFFFFFFFFFFFF00FFFFFFFFFFFFFFFF0FFFFFFFFFFFFFFF0
102
{BLKREFS
331
77E5
331
78CE
331
7919
331
7959
331
799D
331
7AB1
331
7B67
102
}
  0
BLOCK_RECORD
  5
77D0
330
742F
100
AcDbSymbolTableRecord
100
AcDbBlockTableRecord
  2
A$C59E22092
340
0
102
{BLKREFS
331
77E4
331
78CC
331
791F
331
7958
331
799B
331
7AAE
102
}
  0
BLOCK_RECORD
  5
77D6
330
742F
100
AcDbSymbolTableRecord
100
AcDbBlockTableRecord
  2
A$C6DC52012
340
0
102
{BLKREFS
331
77E9
331
78D0
331
795C
331
799C
102
}
  0
BLOCK_RECORD
  5
77DF
330
742F
100
AcDbSymbolTableRecord
100
AcDbBlockTableRecord
  2
A$C026E5AC7
340
0
  0
BLOCK_RECORD
  5
77FC
330
742F
100
AcDbSymbolTableRecord
100
AcDbBlockTableRecord
  2
A$C51E430BF
340
0
  0
BLOCK_RECORD
  5
7808
330
742F
100
AcDbSymbolTableRecord
100
AcDbBlockTableRecord
  2
A$C0C95362D
340
0
  0
BLOCK_RECORD
  5
7817
330
742F
100
AcDbSymbolTableRecord
100
AcDbBlockTableRecord
  2
A$C370611FB
340
0
  0
BLOCK_RECORD
  5
786D
330
742F
100
AcDbSymbolTableRecord
100
AcDbBlockTableRecord
  2
A$C05B15AD2
340
0
102
{BLKREFS
331
78B6
102
}
  0
BLOCK_RECORD
  5
787E
330
742F
100
AcDbSymbolTableRecord
100
AcDbBlockTableRecord
  2
A$C193515A5
340
0
  0
BLOCK_RECORD
  5
788B
330
742F
100
AcDbSymbolTableRecord
100
AcDbBlockTableRecord
  2
A$C66B818C6
340
0
  0
BLOCK_RECORD
  5
789C
330
742F
100
AcDbSymbolTableRecord
100
AcDbBlockTableRecord
  2
A$C697C7EAE
340
0
  0
BLOCK_RECORD
  5
78AD
330
742F
100
AcDbSymbolTableRecord
100
AcDbBlockTableRecord
  2
A$C35484A5B
340
0
  0
BLOCK_RECORD
  5
78B5
330
742F
100
AcDbSymbolTableRecord
100
AcDbBlockTableRecord
  2
A$C4E327069
340
0
  0
BLOCK_RECORD
  5
78BB
330
742F
100
AcDbSymbolTableRecord
100
AcDbBlockTableRecord
  2
A$C5BBD5247
340
0
  0
BLOCK_RECORD
  5
78C7
330
742F
100
AcDbSymbolTableRecord
100
AcDbBlockTableRecord
  2
A$C79C803D7
340
0
  0
BLOCK_RECORD
  5
78D8
330
742F
100
AcDbSymbolTableRecord
100
AcDbBlockTableRecord
  2
A$C3E273730
340
0
102
{BLKREFS
331
7928
102
}
  0
BLOCK_RECORD
  5
7903
330
742F
100
AcDbSymbolTableRecord
100
AcDbBlockTableRecord
  2
A$C7FDF4762
340
0
  0
BLOCK_RECORD
  5
7918
330
742F
100
AcDbSymbolTableRecord
100
AcDbBlockTableRecord
  2
A$C1557626C
340
0
  0
BLOCK_RECORD
  5
7927
330
742F
100
AcDbSymbolTableRecord
100
AcDbBlockTableRecord
  2
A$C290013C0
340
0
  0
BLOCK_RECORD
  5
7953
330
742F
100
AcDbSymbolTableRecord
100
AcDbBlockTableRecord
  2
A$C003A3C0B
340
0
  0
BLOCK_RECORD
  5
7965
330
742F
100
AcDbSymbolTableRecord
100
AcDbBlockTableRecord
  2
A$C2E8D281A
340
0
  0
BLOCK_RECORD
  5
7987
330
742F
100
AcDbSymbolTableRecord
100
AcDbBlockTableRecord
  2
A$C3F664817
340
0
  0
BLOCK_RECORD
  5
799A
330
742F
100
AcDbSymbolTableRecord
100
AcDbBlockTableRecord
  2
A$C72F7516E
340
0
  0
BLOCK_RECORD
  5
79BD
330
742F
100
AcDbSymbolTableRecord
100
AcDbBlockTableRecord
  2
SPEAKER
340
0
310
2800000020000000200000000100040000000000000200000000000000000000000000000000000000000000000080000080000000808000800000008000800080800000C0C0C000808080000000FF0000FF000000FFFF00FF000000FF00FF00FFFF0000FFFFFF00FFFFFFFFFFFFFFFFFFFFFFFFF0FFFFFFFFFFFFFFFFFFFF
310
FFFFFFFFFF00FFFFFFFFFFFFFFFFFFFFFFFFFFFFF0F0FFFFFFFFFFFFFFFFFFFFFFFFFFFF0FF0FFFFFFFFFFFFFFFFFFFFFFFFFFF0FFF0FFFFFFFFFFFFFFFFFFFFFFFFFFF0FFF0FFFFFFFFFFFFFFFFFFFFFFFFFF0FFFF0FFFFFFFFFFFFFFFFFFFFFFFFF0FFFFF0FFFFFFFFFFFFFFFF000000000FFFFFF0FFFFFFFFFFFFFFFF0F
310
FFFFFF0FFFFFF0FFFFFFFFFFFFFFFF0FFFFFFF0FFFFFF0FFFFFFFFFFFFFFFF0FFFFFFF0FFFFFF0FFFFFFFFFFFF00000FFFFFFF0FFFFFF0FFFFFFFFFFFFFFFF0FFFFFFF0FFFFFF0FFFFFFFFFFFFFFFF0FFFFFFF0FFFFFF0FFFFFFFFFFFFFFFF0FFFFFFF0FFFFFF0FFFFFFFFFFFFFFFF0FFFFFFF0FFFFFF0FFFFFFFFFFFFFFFF
310
0FFFFFFF0FFFFFF0FFFFFFFFFFFFFFFF0FFFFFFF0FFFFFF0FFFFFFFFFFFF00000FFFFFFF0FFFFFF0FFFFFFFFFFFFFFFF0FFFFFFF0FFFFFF0FFFFFFFFFFFFFFFF0FFFFFFF0FFFFFF0FFFFFFFFFFFFFFFF0FFFFFFF0FFFFFF0FFFFFFFFFFFFFFFF000000000FFFFFF0FFFFFFFFFFFFFFFFFFFFFFFFF0FFFFF0FFFFFFFFFFFFFF
310
FFFFFFFFFFFF0FFFF0FFFFFFFFFFFFFFFFFFFFFFFFFFF0FFF0FFFFFFFFFFFFFFFFFFFFFFFFFFF0FFF0FFFFFFFFFFFFFFFFFFFFFFFFFFFF0FF0FFFFFFFFFFFFFFFFFFFFFFFFFFFFF0F0FFFFFFFFFFFFFFFFFFFFFFFFFFFFFF00FFFFFFFFFFFFFFFFFFFFFFFFFFFFFFF0FFFFFF
102
{BLKREFS
331
7AA5
102
}
  0
BLOCK_RECORD
  5
79DE
330
742F
100
AcDbSymbolTableRecord
100
AcDbBlockTableRecord
  2
LAMP_INCANDESCENT
340
0
310
2800000020000000200000000100040000000000000200000000000000000000000000000000000000000000000080000080000000808000800000008000800080800000C0C0C000808080000000FF0000FF000000FFFF00FF000000FF00FF00FFFF0000FFFFFF00FFFFFFFFFFFFFFFFFFFFFFFFFFFFFFFFFFFFFFFFFFFFFF
310
FFFFFFFFFFFFFFFFFFFFFFFFFFFFFFFFFFFFFFFFFFFFFFFFFFFFFFFFFFFFFFFFFFFFFFFFFFFFFFFFFFFFFFFFFFFFFFFF000FFFFFFFFFFFFFFFFFFFFFFFFFF000FFF0000FFFFFFFFFFFFFFFFFFFF00FFFFFFFFFF00FFFFFFFFFFFFFFFFF0FFFFFFFFFFFFFF0FFFFFFFFFFFFFFF0FFFFFFFFFFFFFFFF0FFFFFFFFFFFFF0FFFFF
310
FFFFFFFFFFFFF0FFFFFFFFFFF0FFFFFFFFFFFFFFFFFFFF0FFFFFFFFFF0FFFFFFFFFFFFFFFFFFFF0FFFFFFFFF0FFFFFFFFFFFFFFFFFFFFFF0FFFFFFFF0FFFFFFFFFFFFFFFFFFFFFF0FFFFFFFF0FFFFFFFFFFF0FFFFFFFFFF0FFFFFFFF0FFFFFFFFFF00FFFFFFFFFF0FFFF000000FFFFFFFFF00FFFFFFFF000000FFFFF0F0FFF
310
FFFFF00FFFFFFFF0F0FFFFFFFF0F0FFFFFFFF00FFFFFFFF0F0FFFFFFFF0FF0FFFFFFF00FFFFFFF0FF0FFFFFFFFF0F0FFFFFF0FF0FFFFFF0F0FFFFFFFFFF0FF000000FFFF0FFF00FF0FFFFFFFFFFF0FFFFFFFFFFFF000FFF0FFFFFFFFFFFFF0FFFFFFFFFFFFFFFF0FFFFFFFFFFFFFFF0FFFFFFFFFFFFFF0FFFFFFFFFFFFFFFF
310
F0FFFFFFFFFFFF0FFFFFFFFFFFFFFFFFFF00FFFFFFFF00FFFFFFFFFFFFFFFFFFFFFF00000000FFFFFFFFFFFFFFFFFFFFFFFFFFFFFFFFFFFFFFFFFFFFFFFFFFFFFFFFFFFFFFFFFFFFFFFFFFFFFFFFFFFFFFFFFFFFFFFFFFFFFFFFFFFFFFFFFFFFFFFFFFFFFFFFFFFFFFFFFFFF
102
{BLKREFS
331
7AA4
102
}
  0
BLOCK_RECORD
  5
7A01
330
742F
100
AcDbSymbolTableRecord
100
AcDbBlockTableRecord
  2
A$C0A322132
340
0
  0
BLOCK_RECORD
  5
7AA2
330
742F
100
AcDbSymbolTableRecord
100
AcDbBlockTableRecord
  2
A$C1DFA290A
340
0
  0
BLOCK_RECORD
  5
7AF2
330
742F
100
AcDbSymbolTableRecord
100
AcDbBlockTableRecord
  2
A$C245A6C91
340
0
102
{BLKREFS
331
7B61
331
7B6A
331
7B71
331
7B88
331
7BA3
331
7BA4
331
7BD1
102
}
  0
BLOCK_RECORD
  5
7AF8
330
742F
100
AcDbSymbolTableRecord
100
AcDbBlockTableRecord
  2
A$C22302A0B
340
0
102
{BLKREFS
331
7B68
102
}
  0
BLOCK_RECORD
  5
7AFC
330
742F
100
AcDbSymbolTableRecord
100
AcDbBlockTableRecord
  2
ZENER_DIODE
340
0
310
2800000020000000200000000100040000000000000200000000000000000000000000000000000000000000000080000080000000808000800000008000800080800000C0C0C000808080000000FF0000FF000000FFFF00FF000000FF00FF00FFFF0000FFFFFF00FFFFFFFFFFFFFFFFFFFFFFFFFFFFFFFFFFFFFFFFFFFFFF
310
FFFFFFFFFFFFFFFFFFFFFFFFFFFFFFFFFFFFFFFFFFFFFFFFFFFFFFFFFFFFFFFFFFFFFFFFFFFFFFFFFFFFFFFFFFFFFFFFFFFFFFFFFFFFFFFFFFFFFFFFFFFFFFFFFFFFFFFF0FFFFFFFFFFFFFFFFFFFFFFFFFFFFFF0FFFFFFFFFFFFFFFFFFFFFFFFFFFFFF0FFFFFFFFFFFFFFFFFFFFFFF0FFFFFF0FFFFFFFFFFFFFFFFFFFFFFFF
310
00FFFFF0FFFFFFFFFFFFFFFFFFFFFFFF000FFFF0FFFFFFFFFFFFFFFFFFFFFFFF0000FFF0FFFFFFFFFFFFFFFFFFFFFFFF0000FFF0FFFFFFFFFFFFFFFFFFFFFFFF00000FF0FFFFFFFFFFFFFFFFFFFFFFFF000000F0FFFFFFFFFFFFFFFFFFFFFFFF00000000FFFFFFFFFFFF0000000000000000000000000000000FFFFFFFFFFF
310
FF00000000FFFFFFFFFFFFFFFFFFFFFFFF000000F0FFFFFFFFFFFFFFFFFFFFFFFF00000FF0FFFFFFFFFFFFFFFFFFFFFFFF0000FFF0FFFFFFFFFFFFFFFFFFFFFFFF000FFFF0FFFFFFFFFFFFFFFFFFFFFFFF00FFFFF0FFFFFFFFFFFFFFFFFFFFFFFF0FFFFFF0FFFFFFFFFFFFFFFFFFFFFFFFFFFFFF0FFFFFFFFFFFFFFFFFFFFF
310
FFFFFFFFF0FFFFFFFFFFFFFFFFFFFFFFFFFFFFFFF0FFFFFFFFFFFFFFFFFFFFFFFFFFFFFF0FFFFFFFFFFFFFFFFFFFFFFFFFFFFFFFFFFFFFFFFFFFFFFFFFFFFFFFFFFFFFFFFFFFFFFFFFFFFFFFFFFFFFFFFFFFFFFFFFFFFFFFFFFFFFFFFFFFFFFFFFFFFFFFFFFFFFFFFFFFFFFF
102
{BLKREFS
331
7BE0
102
}
  0
BLOCK_RECORD
  5
7B09
330
742F
100
AcDbSymbolTableRecord
100
AcDbBlockTableRecord
  2
A$C3FD64A94
340
0
102
{BLKREFS
331
7BD0
102
}
  0
BLOCK_RECORD
  5
7B19
330
742F
100
AcDbSymbolTableRecord
100
AcDbBlockTableRecord
  2
A$C1AE41025
340
0
  0
BLOCK_RECORD
  5
82E0
330
742F
100
AcDbSymbolTableRecord
100
AcDbBlockTableRecord
  2
*D80
340
0
  0
BLOCK_RECORD
  5
8320
330
742F
100
AcDbSymbolTableRecord
100
AcDbBlockTableRecord
  2
*D81
340
0
  0
BLOCK_RECORD
  5
833F
330
742F
100
AcDbSymbolTableRecord
100
AcDbBlockTableRecord
  2
*D82
340
0
  0
BLOCK_RECORD
  5
836B
330
742F
100
AcDbSymbolTableRecord
100
AcDbBlockTableRecord
  2
*D83
340
0
  0
BLOCK_RECORD
  5
8397
330
742F
100
AcDbSymbolTableRecord
100
AcDbBlockTableRecord
  2
*D84
340
0
  0
BLOCK_RECORD
  5
83D1
330
742F
100
AcDbSymbolTableRecord
100
AcDbBlockTableRecord
  2
*D85
340
0
  0
BLOCK_RECORD
  5
83F9
330
742F
100
AcDbSymbolTableRecord
100
AcDbBlockTableRecord
  2
*D86
340
0
  0
BLOCK_RECORD
  5
8432
330
742F
100
AcDbSymbolTableRecord
100
AcDbBlockTableRecord
  2
_ClosedBlank
340
0
  0
BLOCK_RECORD
  5
8652
330
742F
100
AcDbSymbolTableRecord
100
AcDbBlockTableRecord
  2
*D88
340
0
  0
BLOCK_RECORD
  5
8677
330
742F
100
AcDbSymbolTableRecord
100
AcDbBlockTableRecord
  2
*D89
340
0
  0
BLOCK_RECORD
  5
8684
330
742F
100
AcDbSymbolTableRecord
100
AcDbBlockTableRecord
  2
*D90
340
0
  0
BLOCK_RECORD
  5
872E
330
742F
100
AcDbSymbolTableRecord
100
AcDbBlockTableRecord
  2
*D91
340
0
  0
BLOCK_RECORD
  5
873A
330
742F
100
AcDbSymbolTableRecord
100
AcDbBlockTableRecord
  2
A$C537F4977
340
0
  0
BLOCK_RECORD
  5
8845
330
742F
100
AcDbSymbolTableRecord
100
AcDbBlockTableRecord
  2
*D93
340
0
  0
ENDTAB
  0
ENDSEC
  0
SECTION
  2
BLOCKS
  0
BLOCK
  5
7452
330
7446
100
AcDbEntity
  8
0
100
AcDbBlockBegin
  2
*MODEL_SPACE
 70
     0
 10
0.0
 20
0.0
 30
0.0
  3
*MODEL_SPACE
  1

  0
ENDBLK
  5
7453
330
7446
100
AcDbEntity
  8
0
100
AcDbBlockEnd
  0
BLOCK
  5
7450
330
7443
100
AcDbEntity
 67
     1
  8
0
100
AcDbBlockBegin
  2
*PAPER_SPACE
 70
     2
 10
0.0
 20
0.0
 30
0.0
  3
*PAPER_SPACE
  1

  0
ENDBLK
  5
7451
330
7443
100
AcDbEntity
 67
     1
  8
0
100
AcDbBlockEnd
  0
BLOCK
  5
745D
330
745C
100
AcDbEntity
  8
0
100
AcDbBlockBegin
  2
TITLE_BLOCK
 70
     2
 10
0.0
 20
0.0
 30
0.0
  3
TITLE_BLOCK
  1

  0
LINE
  5
745E
330
745C
100
AcDbEntity
  8
0
 62
     0
100
AcDbLine
 10
279.7943262411347
 20
16.00000000000008
 30
0.0
 11
287.0
 21
16.00000000000008
 31
0.0
  0
LINE
  5
745F
330
745C
100
AcDbEntity
  8
0
 62
     0
100
AcDbLine
 10
287.0
 20
10.0
 30
0.0
 11
287.0
 21
49.00000000000036
 31
0.0
  0
LINE
  5
7460
330
745C
100
AcDbEntity
  8
0
 62
     0
100
AcDbLine
 10
287.0
 20
49.00000000000036
 30
0.0
 11
287.0
 21
10.0
 31
0.0
  0
LINE
  5
7461
330
745C
100
AcDbEntity
  8
0
 62
     0
100
AcDbLine
 10
279.7943262411347
 20
22.00000000000012
 30
0.0
 11
279.7943262411347
 21
10.0
 31
0.0
  0
LINE
  5
7462
330
745C
100
AcDbEntity
  8
0
 62
     0
100
AcDbLine
 10
213.1418439716305
 20
49.00000000000036
 30
0.0
 11
213.1418439716305
 21
22.00000000000012
 31
0.0
  0
LINE
  5
7463
330
745C
100
AcDbEntity
  8
0
 62
     0
100
AcDbLine
 10
202.3333333333325
 20
37.00000000000024
 30
0.0
 11
202.3333333333325
 21
25.00000000000012
 31
0.0
  0
LINE
  5
7464
330
745C
100
AcDbEntity
  8
0
 62
     0
100
AcDbLine
 10
195.1276595744673
 20
49.00000000000036
 30
0.0
 11
195.1276595744673
 21
25.00000000000012
 31
0.0
  0
LINE
  5
7465
330
745C
100
AcDbEntity
  8
0
 62
     0
100
AcDbLine
 10
195.1276595744673
 20
25.00000000000012
 30
0.0
 11
225.7517730496447
 21
25.00000000000012
 31
0.0
  0
LINE
  5
7466
330
745C
100
AcDbEntity
  8
0
 62
     0
100
AcDbLine
 10
157.2978723404242
 20
28.00000000000015
 30
0.0
 11
225.7517730496447
 21
28.00000000000015
 31
0.0
  0
LINE
  5
7467
330
745C
100
AcDbEntity
  8
0
 62
     0
100
AcDbLine
 10
157.2978723404242
 20
31.0000000000002
 30
0.0
 11
225.7517730496447
 21
31.0000000000002
 31
0.0
  0
LINE
  5
7468
330
745C
100
AcDbEntity
  8
0
 62
     0
100
AcDbLine
 10
157.2978723404242
 20
34.00000000000024
 30
0.0
 11
225.7517730496447
 21
34.00000000000024
 31
0.0
  0
LINE
  5
7469
330
745C
100
AcDbEntity
  8
0
 62
     0
100
AcDbLine
 10
157.2978723404242
 20
19.00000000000007
 30
0.0
 11
195.1276595744673
 21
19.00000000000012
 31
0.0
  0
LINE
  5
746A
330
745C
100
AcDbEntity
  8
0
 62
     0
100
AcDbLine
 10
157.2978723404242
 20
22.00000000000007
 30
0.0
 11
195.1276595744673
 21
22.00000000000012
 31
0.0
  0
LINE
  5
746B
330
745C
100
AcDbEntity
  8
0
 62
     0
100
AcDbLine
 10
157.2978723404242
 20
25.00000000000012
 30
0.0
 11
195.1276595744673
 21
25.00000000000012
 31
0.0
  0
TEXT
  5
746C
330
745C
100
AcDbEntity
  8
0
 62
     0
100
AcDbText
 10
219.2447163844405
 20
10.55220101068186
 30
0.0
 40
1.791674070777747
  1
照査
  7
ADESK1
 72
     1
 11
221.1558353932701
 21
10.55220101068186
 31
0.0
100
AcDbText
  0
TEXT
  5
746D
330
745C
100
AcDbEntity
  8
0
 62
     0
100
AcDbText
 10
209.2960689314087
 20
10.48329012996929
 30
0.0
 40
1.791674070777747
  1
設計
  7
ADESK1
 72
     1
 11
211.2071879402383
 21
10.48329012996929
 31
0.0
100
AcDbText
  0
TEXT
  5
746E
330
745C
100
AcDbEntity
  8
0
 62
     0
100
AcDbText
 10
198.7174935280942
 20
10.48329012996929
 30
0.0
 40
1.791674070777747
  1
製図
  7
ADESK1
 72
     1
 11
200.5688900678978
 21
10.48329012996929
 31
0.0
100
AcDbText
  0
LINE
  5
746F
330
745C
100
AcDbEntity
  8
0
 62
     0
100
AcDbLine
 10
157.2978723404242
 20
10.0
 30
0.0
 11
157.2978723404242
 21
13.00000000000004
 31
0.0
  0
LINE
  5
7470
330
745C
100
AcDbEntity
  8
0
 62
     0
100
AcDbLine
 10
157.2978723404242
 20
16.00000000000008
 30
0.0
 11
195.1276595744673
 21
16.00000000000008
 31
0.0
  0
LINE
  5
7471
330
745C
100
AcDbEntity
  8
0
 62
     0
100
AcDbLine
 10
216.4042553191484
 20
22.00000000000007
 30
0.0
 11
216.4042553191484
 21
10.0
 31
0.0
  0
LINE
  5
7472
330
745C
100
AcDbEntity
  8
0
 62
     0
100
AcDbLine
 10
205.7659574468077
 20
22.00000000000007
 30
0.0
 11
205.7659574468077
 21
10.0
 31
0.0
  0
LINE
  5
7473
330
745C
100
AcDbEntity
  8
0
 62
     0
100
AcDbLine
 10
225.7517730496447
 20
49.00000000000036
 30
0.0
 11
225.7517730496447
 21
10.0
 31
0.0
  0
LINE
  5
7474
330
745C
100
AcDbEntity
  8
0
 62
     0
100
AcDbLine
 10
157.2978723404242
 20
49.00000000000036
 30
0.0
 11
157.2978723404242
 21
10.0
 31
0.0
  0
LINE
  5
7475
330
745C
100
AcDbEntity
  8
0
 62
     0
100
AcDbLine
 10
195.1276595744673
 20
25.00000000000012
 30
0.0
 11
195.1276595744673
 21
10.0
 31
0.0
  0
LINE
  5
7476
330
745C
100
AcDbEntity
  8
0
 62
     0
100
AcDbLine
 10
189.7234042553184
 20
37.00000000000024
 30
0.0
 11
189.7234042553184
 21
10.0
 31
0.0
  0
LINE
  5
7477
330
745C
100
AcDbEntity
  8
0
 62
     0
100
AcDbLine
 10
162.702127659573
 20
37.00000000000024
 30
0.0
 11
162.702127659573
 21
10.0
 31
0.0
  0
LINE
  5
7478
330
745C
100
AcDbEntity
  8
0
 62
     0
100
AcDbLine
 10
180.7163120567365
 20
37.00000000000024
 30
0.0
 11
180.7163120567365
 21
10.0
 31
0.0
  0
LINE
  5
7479
330
745C
100
AcDbEntity
  8
0
 62
     0
100
AcDbLine
 10
287.0
 20
49.00000000000036
 30
0.0
 11
157.2978723404242
 21
49.00000000000036
 31
0.0
  0
LINE
  5
747A
330
745C
100
AcDbEntity
  8
0
 62
     0
100
AcDbLine
 10
157.2978723404242
 20
10.0
 30
0.0
 11
287.0
 21
10.0
 31
0.0
  0
LINE
  5
747B
330
745C
100
AcDbEntity
  8
0
 62
     0
100
AcDbLine
 10
195.1276595744673
 20
22.00000000000012
 30
0.0
 11
287.0
 21
22.00000000000012
 31
0.0
  0
LINE
  5
747C
330
745C
100
AcDbEntity
  8
0
 62
     0
100
AcDbLine
 10
157.2978723404242
 20
37.00000000000024
 30
0.0
 11
287.0
 21
37.00000000000024
 31
0.0
  0
LINE
  5
747D
330
745C
100
AcDbEntity
  8
0
 62
     0
100
AcDbLine
 10
157.2978723404242
 20
13.00000000000004
 30
0.0
 11
287.0
 21
13.00000000000004
 31
0.0
  0
LINE
  5
747E
330
745C
100
AcDbEntity
  8
0
 62
     0
100
AcDbLine
 10
157.2978723404242
 20
49.00000000000036
 30
0.0
 11
287.0
 21
49.00000000000036
 31
0.0
  0
TEXT
  5
747F
330
745C
100
AcDbEntity
  8
0
100
AcDbText
 10
287.6673438822666
 20
33.75
 30
0.0
 40
3.0
  1
D
  7
ADESK1
 72
     1
 11
289.2387724536952
 21
33.75
 31
0.0
100
AcDbText
  0
TEXT
  5
7480
330
745C
100
AcDbEntity
  8
0
100
AcDbText
 10
287.7387724536952
 20
81.25
 30
0.0
 40
3.0
  1
C
  7
ADESK1
 72
     1
 11
289.2387724536952
 21
81.25
 31
0.0
100
AcDbText
  0
TEXT
  5
7481
330
745C
100
AcDbEntity
  8
0
100
AcDbText
 10
287.6673438822666
 20
128.75
 30
0.0
 40
3.0
  1
B
  7
ADESK1
 72
     1
 11
289.2387724536952
 21
128.75
 31
0.0
100
AcDbText
  0
TEXT
  5
7482
330
745C
100
AcDbEntity
  8
0
100
AcDbText
 10
287.9530581679809
 20
176.25
 30
0.0
 40
3.0
  1
A
  7
ADESK1
 72
     1
 11
289.2387724536952
 21
176.25
 31
0.0
100
AcDbText
  0
TEXT
  5
7483
330
745C
100
AcDbEntity
  8
0
100
AcDbText
 10
263.6666666666666
 20
6.230338100985607
 30
0.0
 40
3.0
  1
6
  7
ADESK1
 72
     1
 11
265.1666666666666
 21
6.230338100985607
 31
0.0
100
AcDbText
  0
TEXT
  5
7484
330
745C
100
AcDbEntity
  8
0
100
AcDbText
 10
220.0714285714286
 20
6.230338100985607
 30
0.0
 40
3.0
  1
5
  7
ADESK1
 72
     1
 11
221.4999999999999
 21
6.230338100985607
 31
0.0
100
AcDbText
  0
TEXT
  5
7485
330
745C
100
AcDbEntity
  8
0
100
AcDbText
 10
176.3333333333333
 20
6.230338100985607
 30
0.0
 40
3.0
  1
4
  7
ADESK1
 72
     1
 11
177.8333333333333
 21
6.230338100985607
 31
0.0
100
AcDbText
  0
TEXT
  5
7486
330
745C
100
AcDbEntity
  8
0
100
AcDbText
 10
132.7380952380952
 20
6.230338100985607
 30
0.0
 40
3.0
  1
3
  7
ADESK1
 72
     1
 11
134.1666666666666
 21
6.230338100985607
 31
0.0
100
AcDbText
  0
TEXT
  5
7487
330
745C
100
AcDbEntity
  8
0
100
AcDbText
 10
89.07142857142856
 20
6.230338100985607
 30
0.0
 40
3.0
  1
2
  7
ADESK1
 72
     1
 11
90.5
 21
6.230338100985607
 31
0.0
100
AcDbText
  0
TEXT
  5
7488
330
745C
100
AcDbEntity
  8
0
100
AcDbText
 10
45.61904761904759
 20
6.230338100985607
 30
0.0
 40
3.0
  1
1
  7
ADESK1
 72
     1
 11
46.83333333333331
 21
6.230338100985607
 31
0.0
100
AcDbText
  0
TEXT
  5
7489
330
745C
100
AcDbEntity
  8
0
100
AcDbText
 10
21.37568307432492
 20
33.75
 30
0.0
 40
3.0
  1
D
  7
ADESK1
 72
     1
 11
22.94711164575349
 21
33.75
 31
0.0
100
AcDbText
  0
TEXT
  5
748A
330
745C
100
AcDbEntity
  8
0
100
AcDbText
 10
21.44711164575349
 20
81.25
 30
0.0
 40
3.0
  1
C
  7
ADESK1
 72
     1
 11
22.94711164575349
 21
81.25
 31
0.0
100
AcDbText
  0
TEXT
  5
748B
330
745C
100
AcDbEntity
  8
0
100
AcDbText
 10
21.37568307432492
 20
128.75
 30
0.0
 40
3.0
  1
B
  7
ADESK1
 72
     1
 11
22.94711164575349
 21
128.75
 31
0.0
100
AcDbText
  0
TEXT
  5
748C
330
745C
100
AcDbEntity
  8
0
100
AcDbText
 10
263.6666666666666
 20
201.0
 30
0.0
 40
3.0
  1
6
  7
ADESK1
 72
     1
 11
265.1666666666666
 21
201.0
 31
0.0
100
AcDbText
  0
TEXT
  5
748D
330
745C
100
AcDbEntity
  8
0
100
AcDbText
 10
220.0714285714286
 20
201.0
 30
0.0
 40
3.0
  1
5
  7
ADESK1
 72
     1
 11
221.4999999999999
 21
201.0
 31
0.0
100
AcDbText
  0
TEXT
  5
748E
330
745C
100
AcDbEntity
  8
0
100
AcDbText
 10
176.3333333333333
 20
201.0
 30
0.0
 40
3.0
  1
4
  7
ADESK1
 72
     1
 11
177.8333333333333
 21
201.0
 31
0.0
100
AcDbText
  0
TEXT
  5
748F
330
745C
100
AcDbEntity
  8
0
100
AcDbText
 10
132.7380952380952
 20
201.0
 30
0.0
 40
3.0
  1
3
  7
ADESK1
 72
     1
 11
134.1666666666666
 21
201.0
 31
0.0
100
AcDbText
  0
TEXT
  5
7490
330
745C
100
AcDbEntity
  8
0
100
AcDbText
 10
89.07142857142856
 20
201.0
 30
0.0
 40
3.0
  1
2
  7
ADESK1
 72
     1
 11
90.5
 21
201.0
 31
0.0
100
AcDbText
  0
TEXT
  5
7491
330
745C
100
AcDbEntity
  8
0
100
AcDbText
 10
21.66139736003921
 20
176.25
 30
0.0
 40
3.0
  1
A
  7
ADESK1
 72
     1
 11
22.94711164575349
 21
176.25
 31
0.0
100
AcDbText
  0
TEXT
  5
7492
330
745C
100
AcDbEntity
  8
0
100
AcDbText
 10
45.61904761904761
 20
201.0
 30
0.0
 40
3.0
  1
1
  7
ADESK1
 72
     1
 11
46.83333333333332
 21
201.0
 31
0.0
100
AcDbText
  0
LINE
  5
7493
330
745C
100
AcDbEntity
  8
0
100
AcDbLine
 10
68.66666666666666
 20
200.0
 30
0.0
 11
68.66666666666666
 21
205.0
 31
0.0
  0
LINE
  5
7494
330
745C
100
AcDbEntity
  8
0
100
AcDbLine
 10
112.3333333333333
 20
200.0
 30
0.0
 11
112.3333333333333
 21
205.0
 31
0.0
  0
LINE
  5
7495
330
745C
100
AcDbEntity
  8
0
100
AcDbLine
 10
156.0
 20
200.0
 30
0.0
 11
156.0
 21
205.0
 31
0.0
  0
LINE
  5
7496
330
745C
100
AcDbEntity
  8
0
100
AcDbLine
 10
199.6666666666666
 20
200.0
 30
0.0
 11
199.6666666666666
 21
205.0
 31
0.0
  0
LINE
  5
7497
330
745C
100
AcDbEntity
  8
0
100
AcDbLine
 10
243.3333333333333
 20
200.0
 30
0.0
 11
243.3333333333333
 21
205.0
 31
0.0
  0
LINE
  5
7498
330
745C
100
AcDbEntity
  8
0
100
AcDbLine
 10
287.0
 20
152.5
 30
0.0
 11
292.0
 21
152.5
 31
0.0
  0
LINE
  5
7499
330
745C
100
AcDbEntity
  8
0
100
AcDbLine
 10
287.0
 20
105.0
 30
0.0
 11
292.0
 21
105.0
 31
0.0
  0
LINE
  5
749A
330
745C
100
AcDbEntity
  8
0
100
AcDbLine
 10
287.0
 20
57.5
 30
0.0
 11
292.0
 21
57.5
 31
0.0
  0
LINE
  5
749B
330
745C
100
AcDbEntity
  8
0
100
AcDbLine
 10
243.3333333333333
 20
10.0
 30
0.0
 11
243.3333333333333
 21
5.0
 31
0.0
  0
LINE
  5
749C
330
745C
100
AcDbEntity
  8
0
100
AcDbLine
 10
199.6666666666666
 20
10.0
 30
0.0
 11
199.6666666666666
 21
5.0
 31
0.0
  0
LINE
  5
749D
330
745C
100
AcDbEntity
  8
0
100
AcDbLine
 10
156.0
 20
10.0
 30
0.0
 11
156.0
 21
5.0
 31
0.0
  0
LINE
  5
749E
330
745C
100
AcDbEntity
  8
0
100
AcDbLine
 10
112.3333333333333
 20
10.0
 30
0.0
 11
112.3333333333333
 21
5.0
 31
0.0
  0
LINE
  5
749F
330
745C
100
AcDbEntity
  8
0
100
AcDbLine
 10
68.66666666666668
 20
10.0
 30
0.0
 11
68.66666666666668
 21
5.0
 31
0.0
  0
LINE
  5
74A0
330
745C
100
AcDbEntity
  8
0
100
AcDbLine
 10
25.0
 20
57.5
 30
0.0
 11
20.0
 21
57.5
 31
0.0
  0
LINE
  5
74A1
330
745C
100
AcDbEntity
  8
0
100
AcDbLine
 10
25.0
 20
105.0
 30
0.0
 11
20.0
 21
105.0
 31
0.0
  0
LINE
  5
74A2
330
745C
100
AcDbEntity
  8
0
100
AcDbLine
 10
25.0
 20
152.5
 30
0.0
 11
20.0
 21
152.5
 31
0.0
  0
TEXT
  5
74A3
330
745C
100
AcDbEntity
  8
0
100
AcDbText
 10
1.0
 20
1.0
 30
0.0
 40
3.0
  1
この図枠はサンプルです。社内の規格やプロッタの出力範囲に合わせて適当に変更してご利用ください。
  7
ADESK1
100
AcDbText
  0
LINE
  5
74A4
330
745C
100
AcDbEntity
  8
0
100
AcDbLine
 10
25.0
 20
105.0
 30
0.0
 11
0.0
 21
105.0
 31
0.0
  0
LINE
  5
74A5
330
745C
100
AcDbEntity
  8
0
100
AcDbLine
 10
287.0
 20
105.0
 30
0.0
 11
297.0
 21
105.0
 31
0.0
  0
LINE
  5
74A6
330
745C
100
AcDbEntity
  8
0
100
AcDbLine
 10
156.0
 20
200.0
 30
0.0
 11
156.0
 21
210.0
 31
0.0
  0
LINE
  5
74A7
330
745C
100
AcDbEntity
  8
0
100
AcDbLine
 10
156.0
 20
10.0
 30
0.0
 11
156.0
 21
0.0
 31
0.0
  0
LINE
  5
74A8
330
745C
100
AcDbEntity
  8
OBJECT
100
AcDbLine
 10
130.0
 20
40.0
 30
0.0
 11
130.0
 21
10.0
 31
0.0
  0
LINE
  5
74A9
330
745C
100
AcDbEntity
  8
OBJECT
100
AcDbLine
 10
120.0
 20
10.0
 30
0.0
 11
120.0
 21
40.0
 31
0.0
  0
LINE
  5
74AA
330
745C
100
AcDbEntity
  8
OBJECT
100
AcDbLine
 10
44.5
 20
37.0
 30
0.0
 11
45.49999999999999
 21
37.0
 31
0.0
  0
LINE
  5
74AB
330
745C
100
AcDbEntity
  8
OBJECT
100
AcDbLine
 10
44.5
 20
31.0
 30
0.0
 11
45.49999999999999
 21
31.0
 31
0.0
  0
LINE
  5
74AC
330
745C
100
AcDbEntity
  8
OBJECT
100
AcDbLine
 10
39.5
 20
37.0
 30
0.0
 11
40.49999999999999
 21
37.0
 31
0.0
  0
LINE
  5
74AD
330
745C
100
AcDbEntity
  8
OBJECT
100
AcDbLine
 10
39.5
 20
31.0
 30
0.0
 11
40.49999999999999
 21
31.0
 31
0.0
  0
LINE
  5
74AE
330
745C
100
AcDbEntity
  8
OBJECT
100
AcDbLine
 10
44.5
 20
25.0
 30
0.0
 11
45.49999999999999
 21
25.0
 31
0.0
  0
LINE
  5
74AF
330
745C
100
AcDbEntity
  8
OBJECT
100
AcDbLine
 10
39.5
 20
25.0
 30
0.0
 11
40.49999999999999
 21
25.0
 31
0.0
  0
LINE
  5
74B0
330
745C
100
AcDbEntity
  8
OBJECT
100
AcDbLine
 10
44.5
 20
19.0
 30
0.0
 11
45.49999999999999
 21
19.0
 31
0.0
  0
LINE
  5
74B1
330
745C
100
AcDbEntity
  8
OBJECT
100
AcDbLine
 10
39.5
 20
19.0
 30
0.0
 11
40.49999999999999
 21
19.0
 31
0.0
  0
LINE
  5
74B2
330
745C
100
AcDbEntity
  8
OBJECT
100
AcDbLine
 10
28.0
 20
29.53589799999999
 30
0.0
 11
30.0
 21
33.0
 31
0.0
  0
LINE
  5
74B3
330
745C
100
AcDbEntity
  8
OBJECT
100
AcDbLine
 10
28.0
 20
29.53589799999999
 30
0.0
 11
32.0
 21
29.53589799999999
 31
0.0
  0
LINE
  5
74B4
330
745C
100
AcDbEntity
  8
OBJECT
100
AcDbLine
 10
32.0
 20
29.53589799999999
 30
0.0
 11
30.0
 21
33.0
 31
0.0
  0
LINE
  5
74B5
330
745C
100
AcDbEntity
  8
OBJECT
100
AcDbLine
 10
28.0
 20
35.53589799999999
 30
0.0
 11
32.0
 21
35.53589799999999
 31
0.0
  0
LINE
  5
74B6
330
745C
100
AcDbEntity
  8
OBJECT
100
AcDbLine
 10
32.0
 20
35.53589799999999
 30
0.0
 11
30.0
 21
39.0
 31
0.0
  0
LINE
  5
74B7
330
745C
100
AcDbEntity
  8
OBJECT
100
AcDbLine
 10
28.0
 20
35.53589799999999
 30
0.0
 11
30.0
 21
39.0
 31
0.0
  0
LINE
  5
74B8
330
745C
100
AcDbEntity
  8
OBJECT
100
AcDbLine
 10
28.0
 20
23.53589799999999
 30
0.0
 11
30.0
 21
26.99999999999999
 31
0.0
  0
LINE
  5
74B9
330
745C
100
AcDbEntity
  8
OBJECT
100
AcDbLine
 10
28.0
 20
23.53589799999999
 30
0.0
 11
32.0
 21
23.53589799999999
 31
0.0
  0
LINE
  5
74BA
330
745C
100
AcDbEntity
  8
OBJECT
100
AcDbLine
 10
32.0
 20
23.53589799999999
 30
0.0
 11
30.0
 21
26.99999999999999
 31
0.0
  0
LINE
  5
74BB
330
745C
100
AcDbEntity
  8
OBJECT
100
AcDbLine
 10
28.0
 20
17.535898
 30
0.0
 11
30.0
 21
20.99999999999999
 31
0.0
  0
LINE
  5
74BC
330
745C
100
AcDbEntity
  8
OBJECT
100
AcDbLine
 10
28.0
 20
17.535898
 30
0.0
 11
32.0
 21
17.535898
 31
0.0
  0
LINE
  5
74BD
330
745C
100
AcDbEntity
  8
OBJECT
100
AcDbLine
 10
32.0
 20
17.535898
 30
0.0
 11
30.0
 21
20.99999999999999
 31
0.0
  0
LINE
  5
74BE
330
745C
100
AcDbEntity
  8
OBJECT
100
AcDbLine
 10
44.5
 20
13.0
 30
0.0
 11
45.49999999999999
 21
13.0
 31
0.0
  0
LINE
  5
74BF
330
745C
100
AcDbEntity
  8
OBJECT
100
AcDbLine
 10
39.5
 20
13.0
 30
0.0
 11
40.49999999999999
 21
13.0
 31
0.0
  0
LINE
  5
74C0
330
745C
100
AcDbEntity
  8
OBJECT
100
AcDbLine
 10
28.0
 20
11.53589799999999
 30
0.0
 11
32.0
 21
11.53589799999999
 31
0.0
  0
LINE
  5
74C1
330
745C
100
AcDbEntity
  8
OBJECT
100
AcDbLine
 10
80.0
 20
10.0
 30
0.0
 11
80.0
 21
40.0
 31
0.0
  0
LINE
  5
74C2
330
745C
100
AcDbEntity
  8
OBJECT
100
AcDbLine
 10
50.0
 20
10.0
 30
0.0
 11
50.0
 21
40.0
 31
0.0
  0
LINE
  5
74C3
330
745C
100
AcDbEntity
  8
OBJECT
100
AcDbLine
 10
35.0
 20
10.0
 30
0.0
 11
35.0
 21
40.0
 31
0.0
  0
LINE
  5
74C4
330
745C
100
AcDbEntity
  8
OBJECT
100
AcDbLine
 10
32.0
 20
11.53589799999999
 30
0.0
 11
30.0
 21
15.0
 31
0.0
  0
LINE
  5
74C5
330
745C
100
AcDbEntity
  8
OBJECT
100
AcDbLine
 10
28.0
 20
11.53589799999999
 30
0.0
 11
30.0
 21
15.0
 31
0.0
  0
LINE
  5
74C6
330
745C
100
AcDbEntity
  8
OBJECT
100
AcDbLine
 10
130.0
 20
40.0
 30
0.0
 11
25.0
 21
40.0
 31
0.0
  0
LINE
  5
74C7
330
745C
100
AcDbEntity
  8
OBJECT
100
AcDbLine
 10
130.0
 20
34.0
 30
0.0
 11
25.0
 21
34.0
 31
0.0
  0
LINE
  5
74C8
330
745C
100
AcDbEntity
  8
OBJECT
100
AcDbLine
 10
130.0
 20
28.0
 30
0.0
 11
25.0
 21
28.0
 31
0.0
  0
LINE
  5
74C9
330
745C
100
AcDbEntity
  8
OBJECT
100
AcDbLine
 10
130.0
 20
22.0
 30
0.0
 11
25.0
 21
22.0
 31
0.0
  0
LINE
  5
74CA
330
745C
100
AcDbEntity
  8
OBJECT
100
AcDbLine
 10
130.0
 20
16.0
 30
0.0
 11
25.0
 21
16.0
 31
0.0
  0
ATTDEF
  5
74CB
330
745C
100
AcDbEntity
  8
0
 62
     0
100
AcDbText
 10
19.0
 20
118.0
 30
0.0
 40
3.0
  1

 50
90.0
  7
ADESK1
100
AcDbAttributeDefinition
  3

  2
FNAME
 70
     8
  0
ATTDEF
  5
74CC
330
745C
100
AcDbEntity
  8
0
 62
     0
100
AcDbText
 10
19.0
 20
70.0
 30
0.0
 40
3.0
  1

 50
90.0
  7
ADESK1
100
AcDbAttributeDefinition
  3

  2
REVDATE
 70
     8
  0
ATTDEF
  5
74CD
330
745C
100
AcDbEntity
  8
0
 62
     0
100
AcDbText
 10
19.0
 20
10.0
 30
0.0
 40
3.0
  1

 50
90.0
  7
ADESK1
100
AcDbAttributeDefinition
  3

  2
USER
 70
     8
  0
LINE
  5
74CE
330
745C
100
AcDbEntity
  8
0
100
AcDbLine
 10
287.0
 20
210.0
 30
0.0
 11
297.0
 21
210.0
 31
0.0
  0
LINE
  5
74CF
330
745C
100
AcDbEntity
  8
0
100
AcDbLine
 10
297.0
 20
10.0
 30
0.0
 11
297.0
 21
0.0
 31
0.0
  0
LINE
  5
74D0
330
745C
100
AcDbEntity
  8
0
100
AcDbLine
 10
25.0
 20
0.0
 30
0.0
 11
0.0
 21
0.0
 31
0.0
  0
LINE
  5
74D1
330
745C
100
AcDbEntity
  8
0
100
AcDbLine
 10
0.0
 20
200.0
 30
0.0
 11
0.0
 21
210.0
 31
0.0
  0
LINE
  5
74D2
330
745C
100
AcDbEntity
  8
0
100
AcDbLine
 10
25.0
 20
200.0
 30
0.0
 11
287.0
 21
200.0
 31
0.0
  0
LINE
  5
74D3
330
745C
100
AcDbEntity
  8
0
100
AcDbLine
 10
287.0
 20
200.0
 30
0.0
 11
287.0
 21
10.0
 31
0.0
  0
LINE
  5
74D4
330
745C
100
AcDbEntity
  8
0
100
AcDbLine
 10
287.0
 20
10.0
 30
0.0
 11
25.0
 21
10.0
 31
0.0
  0
LINE
  5
74D5
330
745C
100
AcDbEntity
  8
0
100
AcDbLine
 10
25.0
 20
10.0
 30
0.0
 11
25.0
 21
200.0
 31
0.0
  0
LINE
  5
74D6
330
745C
100
AcDbEntity
  8
0
100
AcDbLine
 10
297.0
 20
0.0
 30
0.0
 11
287.0
 21
0.0
 31
0.0
  0
LINE
  5
74D7
330
745C
100
AcDbEntity
  8
0
100
AcDbLine
 10
297.0
 20
210.0
 30
0.0
 11
297.0
 21
200.0
 31
0.0
  0
LINE
  5
74D8
330
745C
100
AcDbEntity
  8
0
100
AcDbLine
 10
0.0
 20
210.0
 30
0.0
 11
25.0
 21
210.0
 31
0.0
  0
LINE
  5
74D9
330
745C
100
AcDbEntity
  8
0
100
AcDbLine
 10
0.0
 20
0.0
 30
0.0
 11
0.0
 21
10.0
 31
0.0
  0
ENDBLK
  5
74DA
330
745C
100
AcDbEntity
  8
0
100
AcDbBlockEnd
  0
BLOCK
  5
7541
330
753B
100
AcDbEntity
  8
0
100
AcDbBlockBegin
  2
GENERATOR_AC
 70
     0
 10
0.0
 20
0.0
 30
0.0
  3
GENERATOR_AC
  1

  0
LINE
  5
753C
330
753B
100
AcDbEntity
  8
0
 62
     7
100
AcDbLine
 10
0.3500000000000005
 20
0.0
 30
0.0
 11
0.4000000000000004
 21
0.0
 31
0.0
  0
LINE
  5
753D
330
753B
100
AcDbEntity
  8
0
 62
     7
100
AcDbLine
 10
0.0
 20
0.0
 30
0.0
 11
0.0500000000000007
 21
0.0
 31
0.0
  0
ARC
  5
753E
330
753B
100
AcDbEntity
  8
0
 62
     7
100
AcDbCircle
 10
0.1500000000000003
 20
0.0
 30
0.0
 40
0.05
100
AcDbArc
 50
0.0
 51
180.0
  0
ARC
  5
753F
330
753B
100
AcDbEntity
  8
0
 62
     7
100
AcDbCircle
 10
0.25
 20
0.0
 30
0.0
 40
0.05
100
AcDbArc
 50
180.0
 51
0.0
  0
CIRCLE
  5
7540
330
753B
100
AcDbEntity
  8
0
 62
     7
100
AcDbCircle
 10
0.2000000000000002
 20
0.0
 30
0.0
 40
0.15
  0
ENDBLK
  5
7542
330
753B
100
AcDbEntity
  8
0
100
AcDbBlockEnd
  0
BLOCK
  5
7561
330
755C
100
AcDbEntity
  8
0
100
AcDbBlockBegin
  2
CAPACITOR
 70
     0
 10
0.0
 20
0.0
 30
0.0
  3
CAPACITOR
  1

  0
LINE
  5
755D
330
755C
100
AcDbEntity
  8
0
 62
     7
100
AcDbLine
 10
0.2250000000000001
 20
0.0
 30
0.0
 11
0.4000000000000004
 21
0.0
 31
0.0
  0
ARC
  5
755E
330
755C
100
AcDbEntity
  8
0
 62
     7
100
AcDbCircle
 10
0.4375
 20
0.0
 30
0.0
 40
0.2125
100
AcDbArc
 50
151.9275
 51
208.0725
  0
LINE
  5
755F
330
755C
100
AcDbEntity
  8
0
 62
     7
100
AcDbLine
 10
0.1500000000000003
 20
0.0
 30
0.0
 11
0.0
 21
0.0
 31
0.0
  0
LINE
  5
7560
330
755C
100
AcDbEntity
  8
0
 62
     7
100
AcDbLine
 10
0.1500000000000003
 20
-0.1000000000000005
 30
0.0
 11
0.1500000000000003
 21
0.0999999999999997
 31
0.0
  0
ENDBLK
  5
7562
330
755C
100
AcDbEntity
  8
0
100
AcDbBlockEnd
  0
BLOCK
  5
7574
330
756F
100
AcDbEntity
  8
0
100
AcDbBlockBegin
  2
A$C5E0F3A14
 70
     0
 10
0.0
 20
0.0
 30
0.0
  3
A$C5E0F3A14
  1

  0
LINE
  5
7570
330
756F
100
AcDbEntity
  8
0
 62
     7
100
AcDbLine
 10
1.000000668457104
 20
7.499999997632698
 30
0.0
 11
1.000000668457104
 21
12.9999999976327
 31
0.0
  0
LINE
  5
7571
330
756F
100
AcDbEntity
  8
0
 62
     7
100
AcDbLine
 10
0.0000006684570977
 20
7.499999997632698
 30
0.0
 11
2.000000668457097
 21
7.499999997632698
 31
0.0
  0
ELLIPSE
  5
7572
330
756F
100
AcDbEntity
  8
0
 62
     7
100
AcDbEllipse
 10
1.000000668457104
 20
4.624999997632698
 30
0.0
 11
1.502601910021415
 21
1.502601910021415
 31
0.0
210
0.0
220
0.0
230
-0.9999999999999998
 40
0.9999999999999971
 41
5.007829589516028
 42
5.987744698048245
  0
LINE
  5
7573
330
756F
100
AcDbEntity
  8
0
 62
     7
100
AcDbLine
 10
1.000000668457104
 20
6.749999997632698
 30
0.0
 11
1.000000668457104
 21
-0.000000002367301
 31
0.0
  0
ENDBLK
  5
7575
330
756F
100
AcDbEntity
  8
0
100
AcDbBlockEnd
  0
BLOCK
  5
7584
330
757F
100
AcDbEntity
  8
0
100
AcDbBlockBegin
  2
A$C51B93B19
 70
     0
 10
0.0
 20
0.0
 30
0.0
  3
A$C51B93B19
  1

  0
LINE
  5
7580
330
757F
100
AcDbEntity
  8
0
 62
     7
100
AcDbLine
 10
1.000000668457104
 20
6.749999997632698
 30
0.0
 11
1.000000668457104
 21
-0.000000002367301
 31
0.0
  0
LINE
  5
7581
330
757F
100
AcDbEntity
  8
0
 62
     7
100
AcDbLine
 10
1.000000668457104
 20
7.499999997632698
 30
0.0
 11
1.000000668457104
 21
12.9999999976327
 31
0.0
  0
LINE
  5
7582
330
757F
100
AcDbEntity
  8
0
 62
     7
100
AcDbLine
 10
0.0000006684570977
 20
7.499999997632698
 30
0.0
 11
2.000000668457097
 21
7.499999997632698
 31
0.0
  0
ELLIPSE
  5
7583
330
757F
100
AcDbEntity
  8
0
 62
     7
100
AcDbEllipse
 10
1.000000668457104
 20
4.624999997632698
 30
0.0
 11
1.502601910021415
 21
1.502601910021415
 31
0.0
210
0.0
220
0.0
230
-0.9999999999999998
 40
0.9999999999999971
 41
5.007829589516028
 42
5.987744698048245
  0
ENDBLK
  5
7585
330
757F
100
AcDbEntity
  8
0
100
AcDbBlockEnd
  0
BLOCK
  5
758B
330
7589
100
AcDbEntity
  8
0
100
AcDbBlockBegin
  2
A$C13C01A67
 70
     0
 10
0.0
 20
0.0
 30
0.0
  3
A$C13C01A67
  1

  0
INSERT
  5
758A
330
7589
100
AcDbEntity
  8
0
100
AcDbBlockReference
  2
A$C51B93B19
 10
0.000000253552912
 20
2.000001150863681
 30
0.0
 50
270.0
  0
ENDBLK
  5
758C
330
7589
100
AcDbEntity
  8
0
100
AcDbBlockEnd
  0
BLOCK
  5
7597
330
7592
100
AcDbEntity
  8
0
100
AcDbBlockBegin
  2
A$C27CF61EB
 70
     0
 10
0.0
 20
0.0
 30
0.0
  3
A$C27CF61EB
  1

  0
LINE
  5
7593
330
7592
100
AcDbEntity
  8
0
 62
     7
100
AcDbLine
 10
1.000000668457104
 20
6.749999997632698
 30
0.0
 11
1.000000668457104
 21
-0.000000002367301
 31
0.0
  0
LINE
  5
7594
330
7592
100
AcDbEntity
  8
0
 62
     7
100
AcDbLine
 10
1.000000668457104
 20
7.499999997632698
 30
0.0
 11
1.000000668457104
 21
12.9999999976327
 31
0.0
  0
LINE
  5
7595
330
7592
100
AcDbEntity
  8
0
 62
     7
100
AcDbLine
 10
0.0000006684570977
 20
7.499999997632698
 30
0.0
 11
2.000000668457097
 21
7.499999997632698
 31
0.0
  0
ELLIPSE
  5
7596
330
7592
100
AcDbEntity
  8
0
 62
     7
100
AcDbEllipse
 10
1.000000668457104
 20
4.624999997632698
 30
0.0
 11
1.502601910021415
 21
1.502601910021415
 31
0.0
210
0.0
220
0.0
230
-0.9999999999999998
 40
0.9999999999999971
 41
5.007829589516028
 42
5.987744698048245
  0
ENDBLK
  5
7598
330
7592
100
AcDbEntity
  8
0
100
AcDbBlockEnd
  0
BLOCK
  5
759C
330
759A
100
AcDbEntity
  8
0
100
AcDbBlockBegin
  2
A$C794D5BF7
 70
     0
 10
0.0
 20
0.0
 30
0.0
  3
A$C794D5BF7
  1

  0
MTEXT
  5
759B
330
759A
100
AcDbEntity
  8
0
100
AcDbMText
 10
0.0000001152515097
 20
2.916666574557893
 30
0.0
 40
3.5
 41
2.0
 71
     1
 72
     5
  1
+
 73
     1
 44
1.0
  0
ENDBLK
  5
759D
330
759A
100
AcDbEntity
  8
0
100
AcDbBlockEnd
  0
BLOCK
  5
75A1
330
759F
100
AcDbEntity
  8
0
100
AcDbBlockBegin
  2
A$C0BBB3E94
 70
     0
 10
0.0
 20
0.0
 30
0.0
  3
A$C0BBB3E94
  1

  0
MTEXT
  5
75A0
330
759F
100
AcDbEntity
  8
0
100
AcDbMText
 10
-0.0000002996526973
 20
3.064052594227632
 30
0.0
 40
2.5
 41
9.0
 71
     1
 72
     5
  1
100\fMS UI Gothic|b0|i0|c128|p50;μ
 73
     1
 44
1.0
  0
ENDBLK
  5
75A2
330
759F
100
AcDbEntity
  8
0
100
AcDbBlockEnd
  0
BLOCK
  5
75AF
330
75A7
100
AcDbEntity
  8
0
100
AcDbBlockBegin
  2
DIODE
 70
     0
 10
0.0
 20
0.0
 30
0.0
  3
DIODE
  1

  0
SOLID
  5
75A8
330
75A7
100
AcDbEntity
  8
0
 62
     7
100
AcDbTrace
 10
0.1499999999999995
 20
-0.125
 30
0.0
 11
0.25
 21
0.0
 31
0.0
 12
0.1499999999999995
 22
0.125
 32
0.0
 13
0.1499999999999995
 23
0.125
 33
0.0
  0
LINE
  5
75A9
330
75A7
100
AcDbEntity
  8
0
 62
     7
100
AcDbLine
 10
0.25
 20
0.0
 30
0.0
 11
0.3999999999999995
 21
0.0
 31
0.0
  0
LINE
  5
75AA
330
75A7
100
AcDbEntity
  8
0
 62
     7
100
AcDbLine
 10
0.25
 20
-0.125
 30
0.0
 11
0.25
 21
0.125
 31
0.0
  0
LINE
  5
75AB
330
75A7
100
AcDbEntity
  8
0
 62
     7
100
AcDbLine
 10
0.1499999999999995
 20
0.0
 30
0.0
 11
0.0
 21
0.0
 31
0.0
  0
LINE
  5
75AC
330
75A7
100
AcDbEntity
  8
0
 62
     7
100
AcDbLine
 10
0.25
 20
0.0
 30
0.0
 11
0.1499999999999995
 21
-0.125
 31
0.0
  0
LINE
  5
75AD
330
75A7
100
AcDbEntity
  8
0
 62
     7
100
AcDbLine
 10
0.1499999999999995
 20
0.125
 30
0.0
 11
0.25
 21
0.0
 31
0.0
  0
LINE
  5
75AE
330
75A7
100
AcDbEntity
  8
0
 62
     7
100
AcDbLine
 10
0.1499999999999995
 20
-0.125
 30
0.0
 11
0.1499999999999995
 21
0.125
 31
0.0
  0
ENDBLK
  5
75B0
330
75A7
100
AcDbEntity
  8
0
100
AcDbBlockEnd
  0
BLOCK
  5
75C0
330
75BC
100
AcDbEntity
  8
0
100
AcDbBlockBegin
  2
GROUND
 70
     0
 10
0.0
 20
0.0
 30
0.0
  3
GROUND
  1

  0
LINE
  5
75BD
330
75BC
100
AcDbEntity
  8
0
 62
     7
100
AcDbLine
 10
-0.0499999999999998
 20
-0.0999999999999997
 30
0.0
 11
0.0499999999999998
 21
-0.0999999999999997
 31
0.0
  0
LINE
  5
75BE
330
75BC
100
AcDbEntity
  8
0
 62
     7
100
AcDbLine
 10
0.0750000000000002
 20
-0.0499999999999998
 30
0.0
 11
-0.0750000000000002
 21
-0.0499999999999998
 31
0.0
  0
LINE
  5
75BF
330
75BC
100
AcDbEntity
  8
0
 62
     7
100
AcDbLine
 10
-0.0999999999999997
 20
0.0
 30
0.0
 11
0.0999999999999997
 21
0.0
 31
0.0
  0
ENDBLK
  5
75C1
330
75BC
100
AcDbEntity
  8
0
100
AcDbBlockEnd
  0
BLOCK
  5
7649
330
7647
100
AcDbEntity
  8
0
100
AcDbBlockBegin
  2
RESISTOR
 70
     0
 10
0.0
 20
0.0
 30
0.0
  3
RESISTOR
  1

  0
LWPOLYLINE
  5
7648
330
7647
100
AcDbEntity
  8
0
 62
     7
100
AcDbPolyline
 90
       10
 70
     0
 43
0.0
 10
0.0
 20
0.0
 10
0.0500000000000003
 20
0.0
 10
0.0750000000000002
 20
0.0249999999999995
 10
0.125
 20
-0.0250000000000004
 10
0.1750000000000003
 20
0.0249999999999995
 10
0.2250000000000001
 20
-0.0250000000000004
 10
0.2750000000000003
 20
0.0249999999999995
 10
0.3250000000000002
 20
-0.0250000000000004
 10
0.3500000000000001
 20
0.0
 10
0.4000000000000004
 20
0.0
  0
ENDBLK
  5
764A
330
7647
100
AcDbEntity
  8
0
100
AcDbBlockEnd
  0
BLOCK
  5
764F
330
764C
100
AcDbEntity
  8
0
100
AcDbBlockBegin
  2
A$C2ED258E6
 70
     0
 10
0.0
 20
0.0
 30
0.0
  3
A$C2ED258E6
  1

  0
INSERT
  5
764D
330
764C
100
AcDbEntity
  8
0
100
AcDbBlockReference
  2
GROUND
 10
1.999999700347075
 20
2.000000063773313
 30
0.0
 41
20.0
 42
20.0
  0
LINE
  5
764E
330
764C
100
AcDbEntity
  8
0
100
AcDbLine
 10
1.999999700347075
 20
4.000000063773313
 30
0.0
 11
1.999999700347075
 21
2.000000063773313
 31
0.0
  0
ENDBLK
  5
7650
330
764C
100
AcDbEntity
  8
0
100
AcDbBlockEnd
  0
BLOCK
  5
7654
330
7652
100
AcDbEntity
  8
0
100
AcDbBlockBegin
  2
A$C46D1588A
 70
     0
 10
0.0
 20
0.0
 30
0.0
  3
A$C46D1588A
  1

  0
INSERT
  5
7653
330
7652
100
AcDbEntity
  8
0
100
AcDbBlockReference
  2
A$C51B93B19
 10
0.000000253552912
 20
2.000001150863681
 30
0.0
 50
270.0
  0
ENDBLK
  5
7655
330
7652
100
AcDbEntity
  8
0
100
AcDbBlockEnd
  0
BLOCK
  5
7659
330
7657
100
AcDbEntity
  8
0
100
AcDbBlockBegin
  2
A$C71205D8A
 70
     0
 10
0.0
 20
0.0
 30
0.0
  3
A$C71205D8A
  1

  0
INSERT
  5
7658
330
7657
100
AcDbEntity
  8
0
100
AcDbBlockReference
  2
RESISTOR
 10
1.000000253552919
 20
0.0000001390652642
 30
0.0
 41
30.0
 42
40.0
 50
90.0
  0
ENDBLK
  5
765A
330
7657
100
AcDbEntity
  8
0
100
AcDbBlockEnd
  0
BLOCK
  5
766A
330
7661
100
AcDbEntity
  8
0
100
AcDbBlockBegin
  2
A$C57784720
 70
     0
 10
0.0
 20
0.0
 30
0.0
  3
A$C57784720
  1

  0
LINE
  5
7662
330
7661
100
AcDbEntity
  8
0
 62
     7
100
AcDbLine
 10
1.249999861698725
 20
6.499999997632698
 30
0.0
 11
1.249999861698711
 21
12.9999999976327
 31
0.0
  0
LINE
  5
7663
330
7661
100
AcDbEntity
  8
0
 62
     7
100
AcDbLine
 10
-0.0000001383012744
 20
5.499999997632698
 30
0.0
 11
1.249999861698725
 21
6.499999997632698
 31
0.0
  0
MTEXT
  5
7664
330
7661
100
AcDbEntity
  8
0
100
AcDbMText
 10
3.249999861698711
 20
8.999999997632698
 30
0.0
 40
2.5
 41
10.0
 71
     1
 72
     5
  1
10E1
 73
     1
 44
1.0
  0
LINE
  5
7665
330
7661
100
AcDbEntity
  8
0
 62
     7
100
AcDbLine
 10
1.249999861698725
 20
5.499999997632698
 30
0.0
 11
1.249999861698725
 21
-0.000000002367301
 31
0.0
  0
LINE
  5
7666
330
7661
100
AcDbEntity
  8
0
 62
     7
100
AcDbLine
 10
2.499999861698725
 20
5.499999997632698
 30
0.0
 11
-0.0000001383012744
 21
5.499999997632698
 31
0.0
  0
LINE
  5
7667
330
7661
100
AcDbEntity
  8
0
 62
     7
100
AcDbLine
 10
1.249999861698725
 20
6.499999997632698
 30
0.0
 11
2.499999861698725
 21
5.499999997632698
 31
0.0
  0
LINE
  5
7668
330
7661
100
AcDbEntity
  8
0
 62
     7
100
AcDbLine
 10
2.499999861698725
 20
6.499999997632698
 30
0.0
 11
-0.0000001383012744
 21
6.499999997632698
 31
0.0
  0
SOLID
  5
7669
330
7661
100
AcDbEntity
  8
0
 62
     7
100
AcDbTrace
 10
2.499999861698725
 20
5.499999997632698
 30
0.0
 11
1.249999861698725
 21
6.499999997632698
 31
0.0
 12
-0.0000001383012744
 22
5.499999997632698
 32
0.0
 13
-0.0000001383012744
 23
5.499999997632698
 33
0.0
  0
ENDBLK
  5
766B
330
7661
100
AcDbEntity
  8
0
100
AcDbBlockEnd
  0
BLOCK
  5
767D
330
7675
100
AcDbEntity
  8
0
100
AcDbBlockBegin
  2
A$C4F002544
 70
     0
 10
0.0
 20
0.0
 30
0.0
  3
A$C4F002544
  1

  0
LINE
  5
7676
330
7675
100
AcDbEntity
  8
0
 62
     7
100
AcDbLine
 10
1.25000009220129
 20
5.499999777500534
 30
0.0
 11
1.25000009220129
 21
-0.000000222499466
 31
0.0
  0
LINE
  5
7677
330
7675
100
AcDbEntity
  8
0
 62
     7
100
AcDbLine
 10
1.25000009220129
 20
6.499999777500534
 30
0.0
 11
1.250000092201275
 21
12.99999977750053
 31
0.0
  0
SOLID
  5
7678
330
7675
100
AcDbEntity
  8
0
 62
     7
100
AcDbTrace
 10
2.50000009220129
 20
5.499999777500534
 30
0.0
 11
1.25000009220129
 21
6.499999777500534
 31
0.0
 12
0.0000000922012902
 22
5.499999777500534
 32
0.0
 13
0.0000000922012902
 23
5.499999777500534
 33
0.0
  0
LINE
  5
7679
330
7675
100
AcDbEntity
  8
0
 62
     7
100
AcDbLine
 10
1.25000009220129
 20
6.499999777500534
 30
0.0
 11
2.50000009220129
 21
5.499999777500534
 31
0.0
  0
LINE
  5
767A
330
7675
100
AcDbEntity
  8
0
 62
     7
100
AcDbLine
 10
0.0000000922012902
 20
5.499999777500534
 30
0.0
 11
1.25000009220129
 21
6.499999777500534
 31
0.0
  0
LINE
  5
767B
330
7675
100
AcDbEntity
  8
0
 62
     7
100
AcDbLine
 10
2.50000009220129
 20
5.499999777500534
 30
0.0
 11
0.0000000922012902
 21
5.499999777500534
 31
0.0
  0
LINE
  5
767C
330
7675
100
AcDbEntity
  8
0
 62
     7
100
AcDbLine
 10
2.50000009220129
 20
6.499999777500534
 30
0.0
 11
0.0000000922012902
 21
6.499999777500534
 31
0.0
  0
ENDBLK
  5
767E
330
7675
100
AcDbEntity
  8
0
100
AcDbBlockEnd
  0
BLOCK
  5
7689
330
7687
100
AcDbEntity
  8
0
100
AcDbBlockBegin
  2
A$C418015A2
 70
     0
 10
0.0
 20
0.0
 30
0.0
  3
A$C418015A2
  1

  0
INSERT
  5
7688
330
7687
100
AcDbEntity
  8
0
100
AcDbBlockReference
  2
A$C2ED258E6
 10
0.0000000230505748
 20
-0.0000002957708602
 30
0.0
  0
ENDBLK
  5
768A
330
7687
100
AcDbEntity
  8
0
100
AcDbBlockEnd
  0
BLOCK
  5
7698
330
768F
100
AcDbEntity
  8
0
100
AcDbBlockBegin
  2
OPERATIONAL_AMPLIFIER
 70
     0
 10
0.0
 20
0.0
 30
0.0
  3
OPERATIONAL_AMPLIFIER
  1

  0
LINE
  5
7690
330
768F
100
AcDbEntity
  8
0
 62
     7
100
AcDbLine
 10
0.2000010000000012
 20
0.5
 30
0.0
 11
0.8000010000000017
 21
0.2000009999999994
 31
0.0
  0
LINE
  5
7691
330
768F
100
AcDbEntity
  8
0
 62
     7
100
AcDbLine
 10
0.8000010000000017
 20
0.2000009999999994
 30
0.0
 11
1.0
 21
0.2000009999999994
 31
0.0
  0
LINE
  5
7692
330
768F
100
AcDbEntity
  8
0
 62
     7
100
AcDbLine
 10
0.8000010000000017
 20
0.2000009999999994
 30
0.0
 11
0.2000010000000012
 21
-0.0999990000000013
 31
0.0
  0
LINE
  5
7693
330
768F
100
AcDbEntity
  8
0
 62
     7
100
AcDbLine
 10
0.2000010000000012
 20
-0.0999990000000013
 30
0.0
 11
0.2000010000000012
 21
0.5
 31
0.0
  0
LINE
  5
7694
330
768F
100
AcDbEntity
  8
0
 62
     7
100
AcDbLine
 10
0.0
 20
0.0
 30
0.0
 11
0.2000010000000012
 21
0.0
 31
0.0
  0
TEXT
  5
7695
330
768F
100
AcDbEntity
  8
0
 62
     7
100
AcDbText
 10
0.2182130000000004
 20
-0.0562690000000004
 30
0.0
 40
0.12
  1
+
 41
0.833
100
AcDbText
  0
LINE
  5
7696
330
768F
100
AcDbEntity
  8
0
 62
     7
100
AcDbLine
 10
0.0
 20
0.4000009999999988
 30
0.0
 11
0.2000010000000012
 21
0.4000009999999988
 31
0.0
  0
TEXT
  5
7697
330
768F
100
AcDbEntity
  8
0
 62
     7
100
AcDbText
 10
0.2225550000000007
 20
0.3312699999999991
 30
0.0
 40
0.12
  1
-
 41
0.833
100
AcDbText
  0
ENDBLK
  5
7699
330
768F
100
AcDbEntity
  8
0
100
AcDbBlockEnd
  0
BLOCK
  5
769D
330
769B
100
AcDbEntity
  8
0
100
AcDbBlockBegin
  2
A$C4CEA4178
 70
     0
 10
0.0
 20
0.0
 30
0.0
  3
A$C4CEA4178
  1

  0
INSERT
  5
769C
330
769B
100
AcDbEntity
  8
0
100
AcDbBlockReference
  2
RESISTOR
 10
1.000000253552919
 20
0.0000001390652642
 30
0.0
 41
30.0
 42
40.0
 50
90.0
  0
ENDBLK
  5
769E
330
769B
100
AcDbEntity
  8
0
100
AcDbBlockEnd
  0
BLOCK
  5
76A4
330
76A2
100
AcDbEntity
  8
0
100
AcDbBlockBegin
  2
A$C344F4B31
 70
     0
 10
0.0
 20
0.0
 30
0.0
  3
A$C344F4B31
  1

  0
INSERT
  5
76A3
330
76A2
100
AcDbEntity
  8
0
100
AcDbBlockReference
  2
A$C71205D8A
 10
0.0000000691510422
 20
2.000000082422957
 30
0.0
 50
270.0
  0
ENDBLK
  5
76A5
330
76A2
100
AcDbEntity
  8
0
100
AcDbBlockEnd
  0
BLOCK
  5
76A9
330
76A7
100
AcDbEntity
  8
0
100
AcDbBlockBegin
  2
A$C558B31EE
 70
     0
 10
0.0
 20
0.0
 30
0.0
  3
A$C558B31EE
  1

  0
INSERT
  5
76A8
330
76A7
100
AcDbEntity
  8
0
100
AcDbBlockReference
  2
OPERATIONAL_AMPLIFIER
 10
-0.0000002535523436
 20
1.999980185133267
 30
0.0
 41
20.0
 42
20.0
  0
ENDBLK
  5
76AA
330
76A7
100
AcDbEntity
  8
0
100
AcDbBlockEnd
  0
BLOCK
  5
76C1
330
76BC
100
AcDbEntity
  8
0
100
AcDbBlockBegin
  2
A$C31202269
 70
     0
 10
0.0
 20
0.0
 30
0.0
  3
A$C31202269
  1

  0
LINE
  5
76BD
330
76BC
100
AcDbEntity
  8
0
 62
     7
100
AcDbLine
 10
1.000000668457104
 20
7.499999997632698
 30
0.0
 11
1.000000668457104
 21
12.9999999976327
 31
0.0
  0
LINE
  5
76BE
330
76BC
100
AcDbEntity
  8
0
 62
     7
100
AcDbLine
 10
0.0000006684570977
 20
7.499999997632698
 30
0.0
 11
2.000000668457097
 21
7.499999997632698
 31
0.0
  0
ELLIPSE
  5
76BF
330
76BC
100
AcDbEntity
  8
0
 62
     7
100
AcDbEllipse
 10
1.000000668457104
 20
4.624999997632698
 30
0.0
 11
1.502601910021415
 21
1.502601910021415
 31
0.0
210
0.0
220
0.0
230
-0.9999999999999998
 40
0.9999999999999971
 41
5.007829589516028
 42
5.987744698048245
  0
LINE
  5
76C0
330
76BC
100
AcDbEntity
  8
0
 62
     7
100
AcDbLine
 10
1.000000668457104
 20
6.749999997632698
 30
0.0
 11
1.000000668457104
 21
-0.000000002367301
 31
0.0
  0
ENDBLK
  5
76C2
330
76BC
100
AcDbEntity
  8
0
100
AcDbBlockEnd
  0
BLOCK
  5
76CC
330
76CA
100
AcDbEntity
  8
0
100
AcDbBlockBegin
  2
A$C3E1B27D2
 70
     0
 10
0.0
 20
0.0
 30
0.0
  3
A$C3E1B27D2
  1

  0
INSERT
  5
76CB
330
76CA
100
AcDbEntity
  8
0
100
AcDbBlockReference
  2
GROUND
 10
1.99999972339765
 20
1.999999768002453
 30
0.0
 41
20.0
 42
20.0
  0
ENDBLK
  5
76CD
330
76CA
100
AcDbEntity
  8
0
100
AcDbBlockEnd
  0
BLOCK
  5
76D5
330
76D3
100
AcDbEntity
  8
0
100
AcDbBlockBegin
  2
A$C51FA048C
 70
     0
 10
0.0
 20
0.0
 30
0.0
  3
A$C51FA048C
  1

  0
INSERT
  5
76D4
330
76D3
100
AcDbEntity
  8
0
100
AcDbBlockReference
  2
A$C3E1B27D2
 10
0.0000002074524446
 20
0.0000002998409627
 30
0.0
  0
ENDBLK
  5
76D6
330
76D3
100
AcDbEntity
  8
0
100
AcDbBlockEnd
  0
BLOCK
  5
76DA
330
76D8
100
AcDbEntity
  8
0
100
AcDbBlockBegin
  2
A$C64EB79FF
 70
     0
 10
0.0
 20
0.0
 30
0.0
  3
A$C64EB79FF
  1

  0
MTEXT
  5
76D9
330
76D8
100
AcDbEntity
  8
0
100
AcDbMText
 10
-0.0000003457531648
 20
2.49999986517821
 30
0.0
 40
2.5
 41
8.0
 71
     1
 72
     5
  1
100K
 73
     1
 44
1.0
  0
ENDBLK
  5
76DB
330
76D8
100
AcDbEntity
  8
0
100
AcDbBlockEnd
  0
BLOCK
  5
76EB
330
76E9
100
AcDbEntity
  8
0
100
AcDbBlockBegin
  2
A$C4644613C
 70
     0
 10
0.0
 20
0.0
 30
0.0
  3
A$C4644613C
  1

  0
INSERT
  5
76EA
330
76E9
100
AcDbEntity
  8
0
100
AcDbBlockReference
  2
A$C418015A2
 10
0.0000006514882216
 20
-0.0000000042196575
 30
0.0
  0
ENDBLK
  5
76EC
330
76E9
100
AcDbEntity
  8
0
100
AcDbBlockEnd
  0
BLOCK
  5
76F3
330
76F1
100
AcDbEntity
  8
0
100
AcDbBlockBegin
  2
A$C110E6254
 70
     0
 10
0.0
 20
0.0
 30
0.0
  3
A$C110E6254
  1

  0
INSERT
  5
76F2
330
76F1
100
AcDbEntity
  8
0
100
AcDbBlockReference
  2
A$C344F4B31
 10
0.0000000071640898
 20
0.0000002806808652
 30
0.0
  0
ENDBLK
  5
76F4
330
76F1
100
AcDbEntity
  8
0
100
AcDbBlockEnd
  0
BLOCK
  5
7700
330
76FC
100
AcDbEntity
  8
0
100
AcDbBlockBegin
  2
A$C637E7B7D
 70
     0
 10
0.0
 20
0.0
 30
0.0
  3
A$C637E7B7D
  1

  0
LINE
  5
76FD
330
76FC
100
AcDbEntity
  8
0
100
AcDbLine
 10
2.000000367577399
 20
0.0000001015887392
 30
0.0
 11
2.000000367577399
 21
2.000000272718693
 31
0.0
  0
LINE
  5
76FE
330
76FC
100
AcDbEntity
  8
0
100
AcDbLine
 10
0.0000003675773996
 20
3.000000272718693
 30
0.0
 11
4.000000367577399
 21
3.000000272718693
 31
0.0
  0
CIRCLE
  5
76FF
330
76FC
100
AcDbEntity
  8
0
100
AcDbCircle
 10
2.000000367577399
 20
3.000000272718693
 30
0.0
 40
1.0
  0
ENDBLK
  5
7701
330
76FC
100
AcDbEntity
  8
0
100
AcDbBlockEnd
  0
BLOCK
  5
7712
330
7710
100
AcDbEntity
  8
0
100
AcDbBlockBegin
  2
A$C2D297485
 70
     0
 10
0.0
 20
0.0
 30
0.0
  3
A$C2D297485
  1

  0
INSERT
  5
7711
330
7710
100
AcDbEntity
  8
0
100
AcDbBlockReference
  2
A$C4CEA4178
 10
-0.0000001777397642
 20
-0.0000001348865339
 30
0.0
  0
ENDBLK
  5
7713
330
7710
100
AcDbEntity
  8
0
100
AcDbBlockEnd
  0
BLOCK
  5
7720
330
771E
100
AcDbEntity
  8
0
100
AcDbBlockBegin
  2
A$C2DC57CF5
 70
     0
 10
0.0
 20
0.0
 30
0.0
  3
A$C2DC57CF5
  1

  0
INSERT
  5
771F
330
771E
100
AcDbEntity
  8
0
100
AcDbBlockReference
  2
A$C46D1588A
 10
-0.0000000739514689
 20
-0.0000000367872133
 30
0.0
  0
ENDBLK
  5
7721
330
771E
100
AcDbEntity
  8
0
100
AcDbBlockEnd
  0
BLOCK
  5
7726
330
7724
100
AcDbEntity
  8
0
100
AcDbBlockBegin
  2
A$C63C8229C
 70
     0
 10
0.0
 20
0.0
 30
0.0
  3
A$C63C8229C
  1

  0
INSERT
  5
7725
330
7724
100
AcDbEntity
  8
0
100
AcDbBlockReference
  2
A$C4644613C
 10
-0.0000004239917644
 20
0.0000001736916602
 30
0.0
  0
ENDBLK
  5
7727
330
7724
100
AcDbEntity
  8
0
100
AcDbBlockEnd
  0
BLOCK
  5
772C
330
772A
100
AcDbEntity
  8
0
100
AcDbBlockBegin
  2
A$C7AEC2786
 70
     0
 10
0.0
 20
0.0
 30
0.0
  3
A$C7AEC2786
  1

  0
INSERT
  5
772B
330
772A
100
AcDbEntity
  8
0
100
AcDbBlockReference
  2
A$C71205D8A
 10
-0.0000000379956191
 20
2.000000194491235
 30
0.0
 50
270.0
  0
ENDBLK
  5
772D
330
772A
100
AcDbEntity
  8
0
100
AcDbBlockEnd
  0
BLOCK
  5
7733
330
7730
100
AcDbEntity
  8
0
100
AcDbBlockBegin
  2
A$C654674CB
 70
     0
 10
0.0
 20
0.0
 30
0.0
  3
A$C654674CB
  1

  0
LINE
  5
7731
330
7730
100
AcDbEntity
  8
0
 62
     7
100
AcDbLine
 10
2.000000911989431
 20
4.750000136244551
 30
0.0
 11
2.000000911989431
 21
2.000000138611852
 31
0.0
  0
INSERT
  5
7732
330
7730
100
AcDbEntity
  8
0
100
AcDbBlockReference
  2
A$C3E1B27D2
 10
0.0000002435323267
 20
0.0000001386118527
 30
0.0
  0
ENDBLK
  5
7734
330
7730
100
AcDbEntity
  8
0
100
AcDbBlockEnd
  0
BLOCK
  5
7739
330
7737
100
AcDbEntity
  8
0
100
AcDbBlockBegin
  2
A$C719B27FE
 70
     0
 10
0.0
 20
0.0
 30
0.0
  3
A$C719B27FE
  1

  0
ELLIPSE
  5
7738
330
7737
100
AcDbEntity
  8
0
 62
     7
100
AcDbEllipse
 10
1.000000559909537
 20
-1.874999727006269
 30
0.0
 11
1.502601910021415
 21
1.502601910021415
 31
0.0
210
0.0
220
0.0
230
-0.9999999999999998
 40
0.9999999999999971
 41
5.007829589516028
 42
5.987744698048245
  0
ENDBLK
  5
773A
330
7737
100
AcDbEntity
  8
0
100
AcDbBlockEnd
  0
BLOCK
  5
7742
330
773D
100
AcDbEntity
  8
0
100
AcDbBlockBegin
  2
A$C318D352C
 70
     0
 10
0.0
 20
0.0
 30
0.0
  3
A$C318D352C
  1

  0
LINE
  5
773E
330
773D
100
AcDbEntity
  8
0
 62
     7
100
AcDbLine
 10
1.000000419912268
 20
7.500000048273449
 30
0.0
 11
1.000000419912268
 21
13.00000004827345
 31
0.0
  0
LINE
  5
773F
330
773D
100
AcDbEntity
  8
0
 62
     7
100
AcDbLine
 10
0.0000004199122614
 20
7.500000048273449
 30
0.0
 11
2.000000419912261
 21
7.500000048273449
 31
0.0
  0
ELLIPSE
  5
7740
330
773D
100
AcDbEntity
  8
0
 62
     7
100
AcDbEllipse
 10
1.000000419912268
 20
4.625000048273449
 30
0.0
 11
1.502601910021415
 21
1.502601910021415
 31
0.0
210
0.0
220
0.0
230
-0.9999999999999998
 40
0.9999999999999971
 41
5.007829589516028
 42
5.987744698048245
  0
LINE
  5
7741
330
773D
100
AcDbEntity
  8
0
 62
     7
100
AcDbLine
 10
1.000000419912268
 20
6.750000048273449
 30
0.0
 11
1.000000419912268
 21
0.0000000482734492
 31
0.0
  0
ENDBLK
  5
7743
330
773D
100
AcDbEntity
  8
0
100
AcDbBlockEnd
  0
BLOCK
  5
7754
330
774B
100
AcDbEntity
  8
0
100
AcDbBlockBegin
  2
A$C161D09CF
 70
     0
 10
0.0
 20
0.0
 30
0.0
  3
A$C161D09CF
  1

  0
LINE
  5
774C
330
774B
100
AcDbEntity
  8
0
 62
     7
100
AcDbLine
 10
16.00002010514802
 20
5.999999940087846
 30
0.0
 11
4.00002010514801
 21
-0.0000000599121677
 31
0.0
  0
LINE
  5
774D
330
774B
100
AcDbEntity
  8
0
 62
     7
100
AcDbLine
 10
4.00002010514801
 20
11.99997994008785
 30
0.0
 11
16.00002010514802
 21
5.999999940087846
 31
0.0
  0
TEXT
  5
774E
330
774B
100
AcDbEntity
  8
0
 62
     7
100
AcDbText
 10
4.451100105148
 20
8.625379940087839
 30
0.0
 40
2.399999999999991
  1
-
 41
0.8330000000000033
100
AcDbText
  0
TEXT
  5
774F
330
774B
100
AcDbEntity
  8
0
 62
     7
100
AcDbText
 10
4.364260105147991
 20
0.8745999400878474
 30
0.0
 40
2.400000000000005
  1
+
 41
0.8329999999999985
100
AcDbText
  0
LINE
  5
7750
330
774B
100
AcDbEntity
  8
0
 62
     7
100
AcDbLine
 10
4.00002010514801
 20
-0.0000000599121677
 30
0.0
 11
4.00002010514801
 21
11.99997994008785
 31
0.0
  0
LINE
  5
7751
330
774B
100
AcDbEntity
  8
0
 62
     7
100
AcDbLine
 10
0.0000001051479899
 20
9.999999940087832
 30
0.0
 11
4.00002010514801
 21
9.999999940087832
 31
0.0
  0
LINE
  5
7752
330
774B
100
AcDbEntity
  8
0
 62
     7
100
AcDbLine
 10
0.0000001051479899
 20
1.999979940087854
 30
0.0
 11
4.00002010514801
 21
1.999979940087854
 31
0.0
  0
LINE
  5
7753
330
774B
100
AcDbEntity
  8
0
 62
     7
100
AcDbLine
 10
16.00002010514802
 20
5.999999940087846
 30
0.0
 11
31.00000010514799
 21
5.999999940087846
 31
0.0
  0
ENDBLK
  5
7755
330
774B
100
AcDbEntity
  8
0
100
AcDbBlockEnd
  0
BLOCK
  5
775F
330
775C
100
AcDbEntity
  8
0
100
AcDbBlockBegin
  2
A$C1D544064
 70
     0
 10
0.0
 20
0.0
 30
0.0
  3
A$C1D544064
  1

  0
INSERT
  5
775D
330
775C
100
AcDbEntity
  8
0
100
AcDbBlockReference
  2
A$C4644613C
 10
-0.0000004239917644
 20
0.0000001736916602
 30
0.0
  0
LINE
  5
775E
330
775C
100
AcDbEntity
  8
0
100
AcDbLine
 10
1.999999950894107
 20
3.999999937474456
 30
0.0
 11
1.999999950894107
 21
19.00000017369166
 31
0.0
  0
ENDBLK
  5
7760
330
775C
100
AcDbEntity
  8
0
100
AcDbBlockEnd
  0
BLOCK
  5
7778
330
7776
100
AcDbEntity
  8
0
100
AcDbBlockBegin
  2
A$C020D3176
 70
     0
 10
0.0
 20
0.0
 30
0.0
  3
A$C020D3176
  1

  0
INSERT
  5
7777
330
7776
100
AcDbEntity
  8
0
100
AcDbBlockReference
  2
A$C4644613C
 10
-0.0000003534398729
 20
0.0000002908831505
 30
0.0
  0
ENDBLK
  5
7779
330
7776
100
AcDbEntity
  8
0
100
AcDbBlockEnd
  0
BLOCK
  5
7782
330
777C
100
AcDbEntity
  8
0
100
AcDbBlockBegin
  2
A$C2738566D
 70
     0
 10
0.0
 20
0.0
 30
0.0
  3
A$C2738566D
  1

  0
LINE
  5
777D
330
777C
100
AcDbEntity
  8
0
100
AcDbLine
 10
0.0000000214461124
 20
0.999999795574638
 30
0.0
 11
4.99999964656024
 21
0.999999795574638
 31
0.0
  0
INSERT
  5
777E
330
777C
100
AcDbEntity
  8
0
100
AcDbBlockReference
  2
A$C110E6254
 10
4.99999964656024
 20
-0.000000204425362
 30
0.0
  0
INSERT
  5
777F
330
777C
100
AcDbEntity
  8
0
100
AcDbBlockReference
  2
A$C110E6254
 10
16.99999964656024
 20
-0.000000204425362
 30
0.0
  0
LINE
  5
7780
330
777C
100
AcDbEntity
  8
0
100
AcDbLine
 10
28.99999964656024
 20
0.999999795574638
 30
0.0
 11
34.99999964656024
 21
0.999999795574638
 31
0.0
  0
INSERT
  5
7781
330
777C
100
AcDbEntity
  8
0
100
AcDbBlockReference
  2
A$C637E7B7D
 10
32.99999964656024
 20
0.999999795574638
 30
0.0
  0
ENDBLK
  5
7783
330
777C
100
AcDbEntity
  8
0
100
AcDbBlockEnd
  0
BLOCK
  5
7789
330
7786
100
AcDbEntity
  8
0
100
AcDbBlockBegin
  2
A$C020F535B
 70
     0
 10
0.0
 20
0.0
 30
0.0
  3
A$C020F535B
  1

  0
INSERT
  5
7787
330
7786
100
AcDbEntity
  8
0
100
AcDbBlockReference
  2
A$C020D3176
 10
-0.0000001404241061
 20
0.000000039891745
 30
0.0
  0
LINE
  5
7788
330
7786
100
AcDbEntity
  8
0
100
AcDbLine
 10
1.999999859575893
 20
10.00000003989174
 30
0.0
 11
1.999999859575893
 21
4.000000039891745
 31
0.0
  0
ENDBLK
  5
778A
330
7786
100
AcDbEntity
  8
0
100
AcDbBlockEnd
  0
BLOCK
  5
7794
330
7792
100
AcDbEntity
  8
0
100
AcDbBlockBegin
  2
A$C230F6899
 70
     0
 10
0.0
 20
0.0
 30
0.0
  3
A$C230F6899
  1

  0
INSERT
  5
7793
330
7792
100
AcDbEntity
  8
0
100
AcDbBlockReference
  2
A$C27CF61EB
 10
-0.0000003520800078
 20
0.0000000482734492
 30
0.0
  0
ENDBLK
  5
7795
330
7792
100
AcDbEntity
  8
0
100
AcDbBlockEnd
  0
BLOCK
  5
779A
330
7798
100
AcDbEntity
  8
0
100
AcDbBlockBegin
  2
A$C3BBE51F9
 70
     0
 10
0.0
 20
0.0
 30
0.0
  3
A$C3BBE51F9
  1

  0
INSERT
  5
7799
330
7798
100
AcDbEntity
  8
0
100
AcDbBlockReference
  2
A$C654674CB
 10
-0.0000000305167305
 20
0.0000001522712978
 30
0.0
  0
ENDBLK
  5
779B
330
7798
100
AcDbEntity
  8
0
100
AcDbBlockEnd
  0
BLOCK
  5
77A0
330
779E
100
AcDbEntity
  8
0
100
AcDbBlockBegin
  2
A$C2F7908D3
 70
     0
 10
0.0
 20
0.0
 30
0.0
  3
A$C2F7908D3
  1

  0
INSERT
  5
779F
330
779E
100
AcDbEntity
  8
0
100
AcDbBlockReference
  2
A$C794D5BF7
 10
-0.0000000352760594
 20
0.000000090493387
 30
0.0
  0
ENDBLK
  5
77A1
330
779E
100
AcDbEntity
  8
0
100
AcDbBlockEnd
  0
BLOCK
  5
77A8
330
77A6
100
AcDbEntity
  8
0
100
AcDbBlockBegin
  2
A$C473E29B7
 70
     0
 10
0.0
 20
0.0
 30
0.0
  3
A$C473E29B7
  1

  0
INSERT
  5
77A7
330
77A6
100
AcDbEntity
  8
0
100
AcDbBlockReference
  2
A$C2D297485
 10
-0.0000002455721528
 20
-0.0000000647269189
 30
0.0
  0
ENDBLK
  5
77A9
330
77A6
100
AcDbEntity
  8
0
100
AcDbBlockEnd
  0
BLOCK
  5
77AE
330
77AC
100
AcDbEntity
  8
0
100
AcDbBlockBegin
  2
A$C5E282CF1
 70
     0
 10
0.0
 20
0.0
 30
0.0
  3
A$C5E282CF1
  1

  0
INSERT
  5
77AD
330
77AC
100
AcDbEntity
  8
0
100
AcDbBlockReference
  2
A$C637E7B7D
 10
-0.0000003514001037
 20
-0.0000000712462338
 30
0.0
  0
ENDBLK
  5
77AF
330
77AC
100
AcDbEntity
  8
0
100
AcDbBlockEnd
  0
BLOCK
  5
77B5
330
77B3
100
AcDbEntity
  8
0
100
AcDbBlockBegin
  2
A$C3D3513C1
 70
     0
 10
0.0
 20
0.0
 30
0.0
  3
A$C3D3513C1
  1

  0
INSERT
  5
77B4
330
77B3
100
AcDbEntity
  8
0
100
AcDbBlockReference
  2
A$C7AEC2786
 10
0.0000000366356971
 20
0.0000000333724017
 30
0.0
  0
ENDBLK
  5
77B6
330
77B3
100
AcDbEntity
  8
0
100
AcDbBlockEnd
  0
BLOCK
  5
77BC
330
77BA
100
AcDbEntity
  8
0
100
AcDbBlockBegin
  2
A$C428705A6
 70
     0
 10
0.0
 20
0.0
 30
0.0
  3
A$C428705A6
  1

  0
INSERT
  5
77BB
330
77BA
100
AcDbEntity
  8
0
100
AcDbBlockReference
  2
A$C473E29B7
 10
0.0000003208832595
 20
0.0000000054327245
 30
0.0
  0
ENDBLK
  5
77BD
330
77BA
100
AcDbEntity
  8
0
100
AcDbBlockEnd
  0
BLOCK
  5
77C9
330
77C0
100
AcDbEntity
  8
0
100
AcDbBlockBegin
  2
TRANSISTOR_NPN
 70
     0
 10
0.0
 20
0.0
 30
0.0
  3
TRANSISTOR_NPN
  1

  0
LINE
  5
77C1
330
77C0
100
AcDbEntity
  8
0
 62
     7
100
AcDbLine
 10
9.999975000000006
 20
5.000000000000004
 30
0.0
 11
4.999975
 21
1.249999999999995
 31
0.0
  0
LINE
  5
77C2
330
77C0
100
AcDbEntity
  8
0
 62
     7
100
AcDbLine
 10
7.903300000000013
 20
-3.638399999999997
 30
0.0
 11
5.028825000000014
 21
-1.725825000000003
 31
0.0
  0
LINE
  5
77C3
330
77C0
100
AcDbEntity
  8
0
 62
     7
100
AcDbLine
 10
4.999975
 20
5.000000000000004
 30
0.0
 11
4.999975
 21
-5.000000000000004
 31
0.0
  0
LINE
  5
77C4
330
77C0
100
AcDbEntity
  8
0
 62
     7
100
AcDbLine
 10
0.0
 20
0.0
 30
0.0
 11
4.999975
 21
0.0
 31
0.0
  0
LINE
  5
77C5
330
77C0
100
AcDbEntity
  8
0
 62
     7
100
AcDbLine
 10
9.999975000000006
 20
-5.000000000000004
 30
0.0
 11
7.562899999999994
 21
-4.162575000000012
 31
0.0
  0
LINE
  5
77C6
330
77C0
100
AcDbEntity
  8
0
 62
     7
100
AcDbLine
 10
8.243700000000009
 20
-3.114225000000003
 30
0.0
 11
9.999975000000006
 21
-5.000000000000004
 31
0.0
  0
SOLID
  5
77C7
330
77C0
100
AcDbEntity
  8
0
 62
     7
100
AcDbTrace
 10
7.562899999999994
 20
-4.162575000000012
 30
0.0
 11
9.999975000000006
 21
-5.000000000000004
 31
0.0
 12
8.243700000000009
 22
-3.114225000000003
 32
0.0
 13
8.243700000000009
 23
-3.114225000000003
 33
0.0
  0
LINE
  5
77C8
330
77C0
100
AcDbEntity
  8
0
 62
     7
100
AcDbLine
 10
7.562899999999994
 20
-4.162575000000012
 30
0.0
 11
7.903300000000013
 21
-3.638399999999997
 31
0.0
  0
ENDBLK
  5
77CA
330
77C0
100
AcDbEntity
  8
0
100
AcDbBlockEnd
  0
BLOCK
  5
77D2
330
77D0
100
AcDbEntity
  8
0
100
AcDbBlockBegin
  2
A$C59E22092
 70
     0
 10
0.0
 20
0.0
 30
0.0
  3
A$C59E22092
  1

  0
INSERT
  5
77D1
330
77D0
100
AcDbEntity
  8
0
100
AcDbBlockReference
  2
A$C3BBE51F9
 10
0.0000001092273578
 20
0.0000000541719771
 30
0.0
  0
ENDBLK
  5
77D3
330
77D0
100
AcDbEntity
  8
0
100
AcDbBlockEnd
  0
BLOCK
  5
77D9
330
77D6
100
AcDbEntity
  8
0
100
AcDbBlockBegin
  2
A$C6DC52012
 70
     0
 10
0.0
 20
0.0
 30
0.0
  3
A$C6DC52012
  1

  0
INSERT
  5
77D7
330
77D6
100
AcDbEntity
  8
0
100
AcDbBlockReference
  2
A$C5E282CF1
 10
-0.0000001017486397
 20
12.00000000543272
 30
0.0
  0
INSERT
  5
77D8
330
77D6
100
AcDbEntity
  8
0
100
AcDbBlockReference
  2
A$C473E29B7
 10
0.9999998982513602
 20
0.0000000054327245
 30
0.0
  0
ENDBLK
  5
77DA
330
77D6
100
AcDbEntity
  8
0
100
AcDbBlockEnd
  0
BLOCK
  5
77EB
330
77DF
100
AcDbEntity
  8
0
100
AcDbBlockBegin
  2
A$C026E5AC7
 70
     0
 10
0.0
 20
0.0
 30
0.0
  3
A$C026E5AC7
  1

  0
LINE
  5
77E0
330
77DF
100
AcDbEntity
  8
0
100
AcDbLine
 10
21.99999982837926
 20
17.99999994893255
 30
0.0
 11
21.99999982837926
 21
3.999999948932554
 31
0.0
  0
INSERT
  5
77E1
330
77DF
100
AcDbEntity
  8
0
100
AcDbBlockReference
  2
A$C428705A6
 10
10.99999982837925
 20
5.999999948932554
 30
0.0
  0
MTEXT
  5
77E2
330
77DF
100
AcDbEntity
  8
0
100
AcDbMText
 10
13.99999982837925
 20
11.99999994893255
 30
0.0
 40
2.5
 41
7.0
 71
     1
 72
     5
  1
15k
 73
     1
 44
1.0
  0
LINE
  5
77E3
330
77DF
100
AcDbEntity
  8
0
100
AcDbLine
 10
11.99999982837925
 20
5.999999948932554
 30
0.0
 11
21.99999982837926
 21
5.999999948932554
 31
0.0
  0
INSERT
  5
77E4
330
77DF
100
AcDbEntity
  8
0
100
AcDbBlockReference
  2
A$C59E22092
 10
19.99999982837925
 20
-0.0000000510674454
 30
0.0
  0
INSERT
  5
77E5
330
77DF
100
AcDbEntity
  8
0
100
AcDbBlockReference
  2
TRANSISTOR_NPN
 10
11.99999982837925
 20
22.99999994893255
 30
0.0
  0
MTEXT
  5
77E6
330
77DF
100
AcDbEntity
  8
0
100
AcDbMText
 10
2.999999828379259
 20
26.99999994893255
 30
0.0
 40
2.5
 41
7.0
 71
     1
 72
     5
  1
15k
 73
     1
 44
1.0
  0
INSERT
  5
77E7
330
77DF
100
AcDbEntity
  8
0
100
AcDbBlockReference
  2
A$C3D3513C1
 10
-0.0000001716207407
 20
21.99999994893255
 30
0.0
  0
LINE
  5
77E8
330
77DF
100
AcDbEntity
  8
0
100
AcDbLine
 10
11.99999982837925
 20
17.99999994893255
 30
0.0
 11
11.99999982837925
 21
22.99999994893255
 31
0.0
  0
INSERT
  5
77E9
330
77DF
100
AcDbEntity
  8
0
100
AcDbBlockReference
  2
A$C6DC52012
 10
19.99999982837925
 20
33.99999994893255
 30
0.0
  0
LINE
  5
77EA
330
77DF
100
AcDbEntity
  8
0
100
AcDbLine
 10
21.99999982837926
 20
27.99999994893255
 30
0.0
 11
21.99999982837926
 21
33.99999994893255
 31
0.0
  0
ENDBLK
  5
77EC
330
77DF
100
AcDbEntity
  8
0
100
AcDbBlockEnd
  0
BLOCK
  5
77FE
330
77FC
100
AcDbEntity
  8
0
100
AcDbBlockBegin
  2
A$C51E430BF
 70
     0
 10
0.0
 20
0.0
 30
0.0
  3
A$C51E430BF
  1

  0
INSERT
  5
77FD
330
77FC
100
AcDbEntity
  8
0
100
AcDbBlockReference
  2
A$C3D3513C1
 10
-0.0000001716207407
 20
0.0000001035320452
 30
0.0
  0
ENDBLK
  5
77FF
330
77FC
100
AcDbEntity
  8
0
100
AcDbBlockEnd
  0
BLOCK
  5
780D
330
7808
100
AcDbEntity
  8
0
100
AcDbBlockBegin
  2
A$C0C95362D
 70
     0
 10
0.0
 20
0.0
 30
0.0
  3
A$C0C95362D
  1

  0
INSERT
  5
7809
330
7808
100
AcDbEntity
  8
0
100
AcDbBlockReference
  2
A$C230F6899
 10
2.000000073951355
 20
4.000000054171977
 30
0.0
  0
INSERT
  5
780A
330
7808
100
AcDbEntity
  8
0
100
AcDbBlockReference
  2
A$C3BBE51F9
 10
1.000000073951355
 20
0.0000000541719771
 30
0.0
  0
MTEXT
  5
780B
330
7808
100
AcDbEntity
  8
0
100
AcDbMText
 10
5.000000073951355
 20
12.00000005417197
 30
0.0
 40
2.5
 41
9.0
 71
     1
 72
     5
  1
10\fMS UI Gothic|b0|i0|c128|p50;μ
 73
     1
 44
1.0
  0
INSERT
  5
780C
330
7808
100
AcDbEntity
  8
0
100
AcDbBlockReference
  2
A$C2F7908D3
 10
0.0000000739513553
 20
12.00000005417197
 30
0.0
  0
ENDBLK
  5
780E
330
7808
100
AcDbEntity
  8
0
100
AcDbBlockEnd
  0
BLOCK
  5
7819
330
7817
100
AcDbEntity
  8
0
100
AcDbBlockBegin
  2
A$C370611FB
 70
     0
 10
0.0
 20
0.0
 30
0.0
  3
A$C370611FB
  1

  0
LWPOLYLINE
  5
7818
330
7817
100
AcDbEntity
  8
0
100
AcDbPolyline
 90
        3
 70
     1
 43
0.0
 10
4.499999773438503
 20
2.59807621985476
 10
-0.0000002265614967
 20
5.196152431208076
 10
-0.0000002265614967
 20
0.0000000085014449
  0
ENDBLK
  5
781A
330
7817
100
AcDbEntity
  8
0
100
AcDbBlockEnd
  0
BLOCK
  5
786F
330
786D
100
AcDbEntity
  8
0
100
AcDbBlockBegin
  2
A$C05B15AD2
 70
     0
 10
0.0
 20
0.0
 30
0.0
  3
A$C05B15AD2
  1

  0
INSERT
  5
786E
330
786D
100
AcDbEntity
  8
0
100
AcDbBlockReference
  2
A$C637E7B7D
 10
-0.0000002419063776
 20
-0.0000002926966545
 30
0.0
  0
ENDBLK
  5
7870
330
786D
100
AcDbEntity
  8
0
100
AcDbBlockEnd
  0
BLOCK
  5
7882
330
787E
100
AcDbEntity
  8
0
100
AcDbBlockBegin
  2
A$C193515A5
 70
     0
 10
0.0
 20
0.0
 30
0.0
  3
A$C193515A5
  1

  0
INSERT
  5
787F
330
787E
100
AcDbEntity
  8
0
100
AcDbBlockReference
  2
A$C2F7908D3
 10
-0.0000002190040505
 20
7.9999998844645
 30
0.0
  0
INSERT
  5
7880
330
787E
100
AcDbEntity
  8
0
100
AcDbBlockReference
  2
A$C230F6899
 10
1.999999780995949
 20
-0.0000001155354994
 30
0.0
  0
MTEXT
  5
7881
330
787E
100
AcDbEntity
  8
0
100
AcDbMText
 10
4.999999780995949
 20
7.9999998844645
 30
0.0
 40
2.5
 41
9.0
 71
     1
 72
     5
  1
10\fMS UI Gothic|b0|i0|c128|p50;μ
 73
     1
 44
1.0
  0
ENDBLK
  5
7883
330
787E
100
AcDbEntity
  8
0
100
AcDbBlockEnd
  0
BLOCK
  5
788D
330
788B
100
AcDbEntity
  8
0
100
AcDbBlockBegin
  2
A$C66B818C6
 70
     0
 10
0.0
 20
0.0
 30
0.0
  3
A$C66B818C6
  1

  0
INSERT
  5
788C
330
788B
100
AcDbEntity
  8
0
100
AcDbBlockReference
  2
A$C71205D8A
 10
-0.0000000482050382
 20
2.000000137764004
 30
0.0
 50
270.0
  0
ENDBLK
  5
788E
330
788B
100
AcDbEntity
  8
0
100
AcDbBlockEnd
  0
BLOCK
  5
78A0
330
789C
100
AcDbEntity
  8
0
100
AcDbBlockBegin
  2
A$C697C7EAE
 70
     0
 10
0.0
 20
0.0
 30
0.0
  3
A$C697C7EAE
  1

  0
INSERT
  5
789D
330
789C
100
AcDbEntity
  8
0
100
AcDbBlockReference
  2
A$C230F6899
 10
2.000000131314436
 20
-0.0000000349371021
 30
0.0
  0
INSERT
  5
789E
330
789C
100
AcDbEntity
  8
0
100
AcDbBlockReference
  2
A$C2F7908D3
 10
0.0000001313144367
 20
7.999999965062897
 30
0.0
  0
MTEXT
  5
789F
330
789C
100
AcDbEntity
  8
0
100
AcDbMText
 10
5.000000131314436
 20
7.999999965062897
 30
0.0
 40
2.5
 41
9.0
 71
     1
 72
     5
  1
1\fMS UI Gothic|b0|i0|c128|p50;μ
 73
     1
 44
1.0
  0
ENDBLK
  5
78A1
330
789C
100
AcDbEntity
  8
0
100
AcDbBlockEnd
  0
BLOCK
  5
78AF
330
78AD
100
AcDbEntity
  8
0
100
AcDbBlockBegin
  2
A$C35484A5B
 70
     0
 10
0.0
 20
0.0
 30
0.0
  3
A$C35484A5B
  1

  0
INSERT
  5
78AE
330
78AD
100
AcDbEntity
  8
0
100
AcDbBlockReference
  2
GROUND
 10
2.000000016201852
 20
2.000000049508116
 30
0.0
 41
20.0
 42
20.0
  0
ENDBLK
  5
78B0
330
78AD
100
AcDbEntity
  8
0
100
AcDbBlockEnd
  0
BLOCK
  5
78B7
330
78B5
100
AcDbEntity
  8
0
100
AcDbBlockBegin
  2
A$C4E327069
 70
     0
 10
0.0
 20
0.0
 30
0.0
  3
A$C4E327069
  1

  0
INSERT
  5
78B6
330
78B5
100
AcDbEntity
  8
0
100
AcDbBlockReference
  2
A$C05B15AD2
 10
-0.0000003985235253
 20
0.0000002769797334
 30
0.0
  0
ENDBLK
  5
78B8
330
78B5
100
AcDbEntity
  8
0
100
AcDbBlockEnd
  0
BLOCK
  5
78BD
330
78BB
100
AcDbEntity
  8
0
100
AcDbBlockBegin
  2
A$C5BBD5247
 70
     0
 10
0.0
 20
0.0
 30
0.0
  3
A$C5BBD5247
  1

  0
INSERT
  5
78BC
330
78BB
100
AcDbEntity
  8
0
100
AcDbBlockReference
  2
A$C3BBE51F9
 10
0.0000003281586913
 20
-0.000000099556388
 30
0.0
  0
ENDBLK
  5
78BE
330
78BB
100
AcDbEntity
  8
0
100
AcDbBlockEnd
  0
BLOCK
  5
78D4
330
78C7
100
AcDbEntity
  8
0
100
AcDbBlockBegin
  2
A$C79C803D7
 70
     0
 10
0.0
 20
0.0
 30
0.0
  3
A$C79C803D7
  1

  0
LINE
  5
78C8
330
78C7
100
AcDbEntity
  8
0
100
AcDbLine
 10
18.99999979015694
 20
18.00000004905967
 30
0.0
 11
18.99999979015694
 21
4.000000049059678
 31
0.0
  0
INSERT
  5
78C9
330
78C7
100
AcDbEntity
  8
0
100
AcDbBlockReference
  2
A$C428705A6
 10
7.999999790156948
 20
6.000000049059678
 30
0.0
  0
LINE
  5
78CA
330
78C7
100
AcDbEntity
  8
0
100
AcDbLine
 10
8.999999790156948
 20
6.000000049059678
 30
0.0
 11
18.99999979015694
 21
6.000000049059678
 31
0.0
  0
MTEXT
  5
78CB
330
78C7
100
AcDbEntity
  8
0
100
AcDbMText
 10
10.99999979015694
 20
12.00000004905968
 30
0.0
 40
2.5
 41
7.0
 71
     1
 72
     5
  1
15k
 73
     1
 44
1.0
  0
INSERT
  5
78CC
330
78C7
100
AcDbEntity
  8
0
100
AcDbBlockReference
  2
A$C59E22092
 10
16.99999979015695
 20
0.000000049059679
 30
0.0
  0
MTEXT
  5
78CD
330
78C7
100
AcDbEntity
  8
0
100
AcDbMText
 10
10.99999979015694
 20
41.00000004905967
 30
0.0
 40
2.5
 41
6.0
 71
     1
 72
     5
  1
10k
 73
     1
 44
1.0
  0
INSERT
  5
78CE
330
78C7
100
AcDbEntity
  8
0
100
AcDbBlockReference
  2
TRANSISTOR_NPN
 10
8.999999790156948
 20
23.00000004905967
 30
0.0
  0
LINE
  5
78CF
330
78C7
100
AcDbEntity
  8
0
100
AcDbLine
 10
8.999999790156948
 20
18.00000004905967
 30
0.0
 11
8.999999790156948
 21
23.00000004905967
 31
0.0
  0
INSERT
  5
78D0
330
78C7
100
AcDbEntity
  8
0
100
AcDbBlockReference
  2
A$C6DC52012
 10
16.99999979015695
 20
34.00000004905967
 30
0.0
  0
LINE
  5
78D1
330
78C7
100
AcDbEntity
  8
0
100
AcDbLine
 10
18.99999979015694
 20
28.00000004905967
 30
0.0
 11
18.99999979015694
 21
34.00000004905967
 31
0.0
  0
MTEXT
  5
78D2
330
78C7
100
AcDbEntity
  8
0
100
AcDbMText
 10
21.9999996185362
 20
35.99999999799223
 30
0.0
 40
2.5
 41
7.0
 71
     1
 72
     5
  1
2k
 73
     1
 44
1.0
  0
MTEXT
  5
78D3
330
78C7
100
AcDbEntity
  8
0
100
AcDbMText
 10
-0.0000002098430514
 20
27.00000004905968
 30
0.0
 40
2.5
 41
7.0
 71
     1
 72
     5
  1
15k
 73
     1
 44
1.0
  0
ENDBLK
  5
78D5
330
78C7
100
AcDbEntity
  8
0
100
AcDbBlockEnd
  0
BLOCK
  5
78DA
330
78D8
100
AcDbEntity
  8
0
100
AcDbBlockBegin
  2
A$C3E273730
 70
     0
 10
0.0
 20
0.0
 30
0.0
  3
A$C3E273730
  1

  0
INSERT
  5
78D9
330
78D8
100
AcDbEntity
  8
0
100
AcDbBlockReference
  2
A$C3D3513C1
 10
0.0000000113411716
 20
-0.0000001534809257
 30
0.0
  0
ENDBLK
  5
78DB
330
78D8
100
AcDbEntity
  8
0
100
AcDbBlockEnd
  0
BLOCK
  5
7908
330
7903
100
AcDbEntity
  8
0
100
AcDbBlockBegin
  2
A$C7FDF4762
 70
     0
 10
0.0
 20
0.0
 30
0.0
  3
A$C7FDF4762
  1

  0
MTEXT
  5
7904
330
7903
100
AcDbEntity
  8
0
100
AcDbMText
 10
-0.0000000898697863
 20
15.99999980241437
 30
0.0
 40
2.5
 41
13.0
 71
     1
 72
     5
  1
DC5V
 73
     1
 44
1.0
  0
LINE
  5
7905
330
7903
100
AcDbEntity
  8
0
100
AcDbLine
 10
3.999999910130213
 20
9.999999802414379
 30
0.0
 11
7.999999910130213
 21
9.999999802414379
 31
0.0
  0
CIRCLE
  5
7906
330
7903
100
AcDbEntity
  8
0
100
AcDbCircle
 10
5.999999910130213
 20
9.999999802414379
 30
0.0
 40
1.0
  0
LINE
  5
7907
330
7903
100
AcDbEntity
  8
0
100
AcDbLine
 10
5.999999910130213
 20
-0.0000001975856208
 30
0.0
 11
5.999999910130213
 21
8.999999802414379
 31
0.0
  0
ENDBLK
  5
7909
330
7903
100
AcDbEntity
  8
0
100
AcDbBlockEnd
  0
BLOCK
  5
7923
330
7918
100
AcDbEntity
  8
0
100
AcDbBlockBegin
  2
A$C1557626C
 70
     0
 10
0.0
 20
0.0
 30
0.0
  3
A$C1557626C
  1

  0
INSERT
  5
7919
330
7918
100
AcDbEntity
  8
0
100
AcDbBlockReference
  2
TRANSISTOR_NPN
 10
9.000000078088419
 20
22.99999982559973
 30
0.0
  0
LINE
  5
791A
330
7918
100
AcDbEntity
  8
0
100
AcDbLine
 10
9.000000078088419
 20
5.999999825599729
 30
0.0
 11
19.00000007808841
 21
5.999999825599729
 31
0.0
  0
INSERT
  5
791B
330
7918
100
AcDbEntity
  8
0
100
AcDbBlockReference
  2
A$C428705A6
 10
8.000000078088419
 20
5.999999825599729
 30
0.0
  0
LINE
  5
791C
330
7918
100
AcDbEntity
  8
0
100
AcDbLine
 10
9.000000078088419
 20
17.99999982559973
 30
0.0
 11
9.000000078088419
 21
22.99999982559973
 31
0.0
  0
MTEXT
  5
791D
330
7918
100
AcDbEntity
  8
0
100
AcDbMText
 10
0.0000000780884193
 20
26.99999982559972
 30
0.0
 40
2.5
 41
7.0
 71
     1
 72
     5
  1
15k
 73
     1
 44
1.0
  0
LINE
  5
791E
330
7918
100
AcDbEntity
  8
0
100
AcDbLine
 10
19.00000007808841
 20
17.99999982559973
 30
0.0
 11
19.00000007808841
 21
3.999999825599729
 31
0.0
  0
INSERT
  5
791F
330
7918
100
AcDbEntity
  8
0
100
AcDbBlockReference
  2
A$C59E22092
 10
17.00000007808841
 20
-0.0000001744002702
 30
0.0
  0
MTEXT
  5
7920
330
7918
100
AcDbEntity
  8
0
100
AcDbMText
 10
11.00000007808841
 20
11.99999982559972
 30
0.0
 40
2.5
 41
7.0
 71
     1
 72
     5
  1
15k
 73
     1
 44
1.0
  0
LINE
  5
7921
330
7918
100
AcDbEntity
  8
0
100
AcDbLine
 10
19.00000007808841
 20
27.99999982559973
 30
0.0
 11
19.00000007808841
 21
33.99999982559973
 31
0.0
  0
LINE
  5
7922
330
7918
100
AcDbEntity
  8
0
100
AcDbLine
 10
19.00000007808841
 20
33.99999982559973
 30
0.0
 11
33.00000028793147
 21
33.99999982559973
 31
0.0
  0
ENDBLK
  5
7924
330
7918
100
AcDbEntity
  8
0
100
AcDbBlockEnd
  0
BLOCK
  5
7929
330
7927
100
AcDbEntity
  8
0
100
AcDbBlockBegin
  2
A$C290013C0
 70
     0
 10
0.0
 20
0.0
 30
0.0
  3
A$C290013C0
  1

  0
INSERT
  5
7928
330
7927
100
AcDbEntity
  8
0
100
AcDbBlockReference
  2
A$C3E273730
 10
-0.0000001590174179
 20
0.0000003718432708
 30
0.0
  0
ENDBLK
  5
792A
330
7927
100
AcDbEntity
  8
0
100
AcDbBlockEnd
  0
BLOCK
  5
7961
330
7953
100
AcDbEntity
  8
0
100
AcDbBlockBegin
  2
A$C003A3C0B
 70
     0
 10
0.0
 20
0.0
 30
0.0
  3
A$C003A3C0B
  1

  0
LINE
  5
7954
330
7953
100
AcDbEntity
  8
0
100
AcDbLine
 10
22.0000001690164
 20
17.99999977126327
 30
0.0
 11
22.0000001690164
 21
3.999999771263276
 31
0.0
  0
INSERT
  5
7955
330
7953
100
AcDbEntity
  8
0
100
AcDbBlockReference
  2
A$C428705A6
 10
11.0000001690164
 20
5.999999771263276
 30
0.0
  0
LINE
  5
7956
330
7953
100
AcDbEntity
  8
0
100
AcDbLine
 10
12.0000001690164
 20
5.999999771263276
 30
0.0
 11
22.0000001690164
 21
5.999999771263276
 31
0.0
  0
MTEXT
  5
7957
330
7953
100
AcDbEntity
  8
0
100
AcDbMText
 10
14.0000001690164
 20
11.99999977126327
 30
0.0
 40
2.5
 41
7.0
 71
     1
 72
     5
  1
15k
 73
     1
 44
1.0
  0
INSERT
  5
7958
330
7953
100
AcDbEntity
  8
0
100
AcDbBlockReference
  2
A$C59E22092
 10
20.0000001690164
 20
-0.0000002287367238
 30
0.0
  0
INSERT
  5
7959
330
7953
100
AcDbEntity
  8
0
100
AcDbBlockReference
  2
TRANSISTOR_NPN
 10
12.0000001690164
 20
22.99999977126327
 30
0.0
  0
LINE
  5
795A
330
7953
100
AcDbEntity
  8
0
100
AcDbLine
 10
12.0000001690164
 20
17.99999977126327
 30
0.0
 11
12.0000001690164
 21
22.99999977126327
 31
0.0
  0
MTEXT
  5
795B
330
7953
100
AcDbEntity
  8
0
100
AcDbMText
 10
14.0000001690164
 20
40.99999977126327
 30
0.0
 40
2.5
 41
6.0
 71
     1
 72
     5
  1
10k
 73
     1
 44
1.0
  0
INSERT
  5
795C
330
7953
100
AcDbEntity
  8
0
100
AcDbBlockReference
  2
A$C6DC52012
 10
20.0000001690164
 20
33.99999977126327
 30
0.0
  0
LINE
  5
795D
330
7953
100
AcDbEntity
  8
0
100
AcDbLine
 10
22.0000001690164
 20
27.99999977126327
 30
0.0
 11
22.0000001690164
 21
33.99999977126327
 31
0.0
  0
MTEXT
  5
795E
330
7953
100
AcDbEntity
  8
0
100
AcDbMText
 10
24.99999999739566
 20
35.99999972019583
 30
0.0
 40
2.5
 41
7.0
 71
     1
 72
     5
  1
2k
 73
     1
 44
1.0
  0
INSERT
  5
795F
330
7953
100
AcDbEntity
  8
0
100
AcDbBlockReference
  2
A$C3D3513C1
 10
0.0000001690164027
 20
21.99999977126327
 30
0.0
  0
MTEXT
  5
7960
330
7953
100
AcDbEntity
  8
0
100
AcDbMText
 10
3.000000169016402
 20
26.99999977126327
 30
0.0
 40
2.5
 41
7.0
 71
     1
 72
     5
  1
15k
 73
     1
 44
1.0
  0
ENDBLK
  5
7962
330
7953
100
AcDbEntity
  8
0
100
AcDbBlockEnd
  0
BLOCK
  5
796A
330
7965
100
AcDbEntity
  8
0
100
AcDbBlockBegin
  2
A$C2E8D281A
 70
     0
 10
0.0
 20
0.0
 30
0.0
  3
A$C2E8D281A
  1

  0
LWPOLYLINE
  5
7966
330
7965
100
AcDbEntity
  8
0
100
AcDbPolyline
 90
        4
 70
     1
 43
0.0
 10
1.00000009285145
 20
9.00000010701143
 10
3.00000009285145
 20
9.00000010701143
 10
3.00000009285145
 20
7.00000010701143
 10
1.00000009285145
 20
7.00000010701143
  0
LINE
  5
7967
330
7965
100
AcDbEntity
  8
0
100
AcDbLine
 10
1.999999797437055
 20
0.0000001070114308
 30
0.0
 11
1.999999797437055
 21
5.000000137353936
 31
0.0
  0
LINE
  5
7968
330
7965
100
AcDbEntity
  8
0
100
AcDbLine
 10
1.999999797437055
 20
5.000000137353936
 30
0.0
 11
1.999999797437055
 21
7.00000030848389
 31
0.0
  0
LINE
  5
7969
330
7965
100
AcDbEntity
  8
0
100
AcDbLine
 10
-0.0000002025629442
 20
8.00000030848389
 30
0.0
 11
3.999999797437055
 21
8.00000030848389
 31
0.0
  0
ENDBLK
  5
796B
330
7965
100
AcDbEntity
  8
0
100
AcDbBlockEnd
  0
BLOCK
  5
7996
330
7987
100
AcDbEntity
  8
0
100
AcDbBlockBegin
  2
A$C3F664817
 70
     0
 10
0.0
 20
0.0
 30
0.0
  3
A$C3F664817
  1

  0
LINE
  5
7988
330
7987
100
AcDbEntity
  8
0
100
AcDbLine
 10
8.000000490241291
 20
8.999999762828309
 30
0.0
 11
7.908540180853833
 21
7.982388983761779
 31
0.0
  0
LINE
  5
7989
330
7987
100
AcDbEntity
  8
0
100
AcDbLine
 10
7.000000490241291
 20
6.999999762828281
 30
0.0
 11
8.000000490241291
 21
8.999999762828281
 31
0.0
  0
LINE
  5
798A
330
7987
100
AcDbEntity
  8
0
 62
     7
100
AcDbLine
 10
2.000000490241262
 20
7.499999985327775
 30
0.0
 11
2.000000490241262
 21
12.99999998532777
 31
0.0
  0
CIRCLE
  5
798B
330
7987
100
AcDbEntity
  8
0
100
AcDbCircle
 10
2.000000490241262
 20
6.999999762828309
 30
0.0
 40
2.0
  0
LINE
  5
798C
330
7987
100
AcDbEntity
  8
0
100
AcDbLine
 10
5.000000490241291
 20
5.999999762828281
 30
0.0
 11
6.000000490241291
 21
7.999999762828281
 31
0.0
  0
LINE
  5
798D
330
7987
100
AcDbEntity
  8
0
 62
     7
100
AcDbLine
 10
3.250000490241262
 20
7.499999985327775
 30
0.0
 11
2.000000490241262
 21
6.499999985327775
 31
0.0
  0
LINE
  5
798E
330
7987
100
AcDbEntity
  8
0
 62
     7
100
AcDbLine
 10
0.7500004902412627
 20
6.499999985327775
 30
0.0
 11
3.250000490241262
 21
6.499999985327775
 31
0.0
  0
LINE
  5
798F
330
7987
100
AcDbEntity
  8
0
 62
     7
100
AcDbLine
 10
0.7500004902412627
 20
7.499999985327775
 30
0.0
 11
3.250000490241262
 21
7.499999985327775
 31
0.0
  0
SOLID
  5
7990
330
7987
100
AcDbEntity
  8
0
 62
     7
100
AcDbTrace
 10
0.7500004902412627
 20
7.499999985327775
 30
0.0
 11
2.000000490241262
 21
6.499999985327775
 31
0.0
 12
3.250000490241262
 22
7.499999985327775
 32
0.0
 13
3.250000490241262
 23
7.499999985327775
 33
0.0
  0
LINE
  5
7991
330
7987
100
AcDbEntity
  8
0
 62
     7
100
AcDbLine
 10
2.000000490241262
 20
6.499999985327775
 30
0.0
 11
0.7500004902412627
 21
7.499999985327775
 31
0.0
  0
LINE
  5
7992
330
7987
100
AcDbEntity
  8
0
100
AcDbLine
 10
6.000000490241291
 20
7.999999762828281
 30
0.0
 11
7.000000490241291
 21
6.999999762828281
 31
0.0
  0
INSERT
  5
7993
330
7987
100
AcDbEntity
  8
0
100
AcDbBlockReference
  2
A$C5E282CF1
 10
0.0000003884926514
 20
11.99999976282828
 30
0.0
  0
LINE
  5
7994
330
7987
100
AcDbEntity
  8
0
100
AcDbLine
 10
8.000000490241291
 20
8.999999762828281
 30
0.0
 11
7.136241031570534
 21
8.175344243205245
 31
0.0
  0
LINE
  5
7995
330
7987
100
AcDbEntity
  8
0
 62
     7
100
AcDbLine
 10
2.000000490241262
 20
6.499999985327775
 30
0.0
 11
2.000000490241262
 21
-0.0000000146722243
 31
0.0
  0
ENDBLK
  5
7997
330
7987
100
AcDbEntity
  8
0
100
AcDbBlockEnd
  0
BLOCK
  5
79A7
330
799A
100
AcDbEntity
  8
0
100
AcDbBlockBegin
  2
A$C72F7516E
 70
     0
 10
0.0
 20
0.0
 30
0.0
  3
A$C72F7516E
  1

  0
INSERT
  5
799B
330
799A
100
AcDbEntity
  8
0
100
AcDbBlockReference
  2
A$C59E22092
 10
19.99999959668787
 20
-0.0000002814911682
 30
0.0
  0
INSERT
  5
799C
330
799A
100
AcDbEntity
  8
0
100
AcDbBlockReference
  2
A$C6DC52012
 10
19.99999959668787
 20
33.99999971850883
 30
0.0
  0
INSERT
  5
799D
330
799A
100
AcDbEntity
  8
0
100
AcDbBlockReference
  2
TRANSISTOR_NPN
 10
11.99999959668787
 20
22.99999971850883
 30
0.0
  0
LINE
  5
799E
330
799A
100
AcDbEntity
  8
0
100
AcDbLine
 10
11.99999959668787
 20
5.999999718508831
 30
0.0
 11
21.99999959668787
 21
5.999999718508831
 31
0.0
  0
LINE
  5
799F
330
799A
100
AcDbEntity
  8
0
100
AcDbLine
 10
11.99999959668787
 20
17.99999971850883
 30
0.0
 11
11.99999959668787
 21
22.99999971850883
 31
0.0
  0
INSERT
  5
79A0
330
799A
100
AcDbEntity
  8
0
100
AcDbBlockReference
  2
A$C428705A6
 10
10.99999959668787
 20
5.999999718508831
 30
0.0
  0
MTEXT
  5
79A1
330
799A
100
AcDbEntity
  8
0
100
AcDbMText
 10
13.99999959668787
 20
11.99999971850883
 30
0.0
 40
2.5
 41
7.0
 71
     1
 72
     5
  1
15k
 73
     1
 44
1.0
  0
INSERT
  5
79A2
330
799A
100
AcDbEntity
  8
0
100
AcDbBlockReference
  2
A$C3D3513C1
 10
-0.0000004033121286
 20
21.99999971850883
 30
0.0
  0
MTEXT
  5
79A3
330
799A
100
AcDbEntity
  8
0
100
AcDbMText
 10
2.999999596687871
 20
26.99999971850883
 30
0.0
 40
2.5
 41
7.0
 71
     1
 72
     5
  1
2k
 73
     1
 44
1.0
  0
LINE
  5
79A4
330
799A
100
AcDbEntity
  8
0
100
AcDbLine
 10
21.99999959668787
 20
17.99999971850883
 30
0.0
 11
21.99999959668787
 21
3.999999718508831
 31
0.0
  0
LINE
  5
79A5
330
799A
100
AcDbEntity
  8
0
100
AcDbLine
 10
21.99999959668787
 20
27.99999971850883
 30
0.0
 11
21.99999959668787
 21
33.99999971850883
 31
0.0
  0
MTEXT
  5
79A6
330
799A
100
AcDbEntity
  8
0
100
AcDbMText
 10
12.99999976830861
 20
41.99999976957627
 30
0.0
 40
2.5
 41
7.0
 71
     1
 72
     5
  1
10k
 73
     1
 44
1.0
  0
ENDBLK
  5
79A8
330
799A
100
AcDbEntity
  8
0
100
AcDbBlockEnd
  0
BLOCK
  5
79C7
330
79BD
100
AcDbEntity
  8
0
100
AcDbBlockBegin
  2
SPEAKER
 70
     0
 10
0.0
 20
0.0
 30
0.0
  3
SPEAKER
  1

  0
LINE
  5
79BE
330
79BD
100
AcDbEntity
  8
0
 62
     7
100
AcDbLine
 10
3.750000000000008
 20
1.249999999999995
 30
0.0
 11
1.250000000000017
 21
1.249999999999995
 31
0.0
  0
LINE
  5
79BF
330
79BD
100
AcDbEntity
  8
0
 62
     7
100
AcDbLine
 10
6.25
 20
3.750000000000008
 30
0.0
 11
3.750000000000008
 21
1.249999999999995
 31
0.0
  0
LINE
  5
79C0
330
79BD
100
AcDbEntity
  8
0
 62
     7
100
AcDbLine
 10
0.0
 20
0.0
 30
0.0
 11
1.250000000000017
 21
0.0
 31
0.0
  0
LINE
  5
79C1
330
79BD
100
AcDbEntity
  8
0
 62
     7
100
AcDbLine
 10
1.250000000000017
 20
-3.749999999999986
 30
0.0
 11
3.750000000000008
 21
-3.749999999999986
 31
0.0
  0
LINE
  5
79C2
330
79BD
100
AcDbEntity
  8
0
 62
     7
100
AcDbLine
 10
3.750000000000008
 20
-3.749999999999986
 30
0.0
 11
6.25
 21
-6.25
 31
0.0
  0
LINE
  5
79C3
330
79BD
100
AcDbEntity
  8
0
 62
     7
100
AcDbLine
 10
0.0
 20
-2.499999999999991
 30
0.0
 11
1.250000000000017
 21
-2.499999999999991
 31
0.0
  0
LINE
  5
79C4
330
79BD
100
AcDbEntity
  8
0
 62
     7
100
AcDbLine
 10
6.25
 20
-6.25
 30
0.0
 11
6.25
 21
3.750000000000008
 31
0.0
  0
LINE
  5
79C5
330
79BD
100
AcDbEntity
  8
0
 62
     7
100
AcDbLine
 10
3.750000000000008
 20
-3.749999999999986
 30
0.0
 11
3.750000000000008
 21
1.249999999999995
 31
0.0
  0
LINE
  5
79C6
330
79BD
100
AcDbEntity
  8
0
 62
     7
100
AcDbLine
 10
1.250000000000017
 20
1.249999999999995
 30
0.0
 11
1.250000000000017
 21
-3.749999999999986
 31
0.0
  0
ENDBLK
  5
79C8
330
79BD
100
AcDbEntity
  8
0
100
AcDbBlockEnd
  0
BLOCK
  5
79E4
330
79DE
100
AcDbEntity
  8
0
100
AcDbBlockBegin
  2
LAMP_INCANDESCENT
 70
     0
 10
0.0
 20
0.0
 30
0.0
  3
LAMP_INCANDESCENT
  1

  0
CIRCLE
  5
79DF
330
79DE
100
AcDbEntity
  8
0
 62
     7
100
AcDbCircle
 10
5.000000000000004
 20
0.0
 30
0.0
 40
3.75
  0
ARC
  5
79E0
330
79DE
100
AcDbEntity
  8
0
 62
     7
100
AcDbCircle
 10
3.541674999999999
 20
0.208324999999987
 30
0.0
 40
1.679637
100
AcDbArc
 50
330.2551
 51
187.125
  0
ARC
  5
79E1
330
79DE
100
AcDbEntity
  8
0
 62
     7
100
AcDbCircle
 10
6.452199999999996
 20
0.2389500000000044
 30
0.0
 40
1.68977725
100
AcDbArc
 50
351.8698999999999
 51
210.75
  0
LINE
  5
79E2
330
79DE
100
AcDbEntity
  8
0
 62
     7
100
AcDbLine
 10
0.0
 20
0.0
 30
0.0
 11
1.875000000000004
 21
0.0
 31
0.0
  0
LINE
  5
79E3
330
79DE
100
AcDbEntity
  8
0
 62
     7
100
AcDbLine
 10
8.125000000000003
 20
0.0
 30
0.0
 11
10.0
 21
0.0
 31
0.0
  0
ENDBLK
  5
79E5
330
79DE
100
AcDbEntity
  8
0
100
AcDbBlockEnd
  0
BLOCK
  5
7A3B
330
7A01
100
AcDbEntity
  8
0
100
AcDbBlockBegin
  2
A$C0A322132
 70
     0
 10
0.0
 20
0.0
 30
0.0
  3
A$C0A322132
  1

  0
LINE
  5
7A02
330
7A01
100
AcDbEntity
  8
0
100
AcDbLine
 10
51.99999975821981
 20
19.0000000544399
 30
0.0
 11
76.99999975821981
 21
19.0000000544399
 31
0.0
  0
MTEXT
  5
7A03
330
7A01
100
AcDbEntity
  8
0
100
AcDbMText
 10
53.99999975821981
 20
11.0000000544399
 30
0.0
 40
2.5
 41
15.0
 71
     1
 72
     5
  1
470\fMS UI Gothic|b0|i0|c128|p50;μ
 73
     1
 44
1.0
  0
LINE
  5
7A04
330
7A01
100
AcDbEntity
  8
0
100
AcDbLine
 10
51.99999975821981
 20
6.000000054439908
 30
0.0
 11
130.9999997582198
 21
6.000000054439908
 31
0.0
  0
ELLIPSE
  5
7A05
330
7A01
100
AcDbEntity
  8
0
 62
     7
100
AcDbEllipse
 10
23.0261327532736
 20
16.51304029186241
 30
0.0
 11
-0.7071067811865497
 21
0.7071067811865498
 31
0.0
210
0.0
220
0.0
230
1.0
 40
0.9999999999999941
 41
5.497787143782135
 42
8.639379797371928
  0
MTEXT
  5
7A06
330
7A01
100
AcDbEntity
  8
0
100
AcDbMText
 10
-0.0000002417801852
 20
19.0000000544399
 30
0.0
 40
3.5
 41
19.0
 71
     1
 72
     5
  1
AC100V
 73
     1
 44
1.0
  0
ELLIPSE
  5
7A07
330
7A01
100
AcDbEntity
  8
0
 62
     7
100
AcDbEllipse
 10
23.0261327532736
 20
17.51304029186241
 30
0.0
 11
-2.12132034355965
 21
2.12132034355965
 31
0.0
210
0.0
220
0.0
230
1.0
 40
0.9999999999999923
 41
0.0
 42
6.283185307179586
  0
LWPOLYLINE
  5
7A08
330
7A01
100
AcDbEntity
  8
0
100
AcDbPolyline
 90
        4
 70
     1
 43
0.0
 10
29.99999975821981
 20
25.00000005443991
 10
52.99999975821982
 20
25.00000005443991
 10
52.99999975821982
 20
0.0000000544399086
 10
29.99999975821981
 20
0.0000000544399086
  0
CIRCLE
  5
7A09
330
7A01
100
AcDbEntity
  8
0
100
AcDbCircle
 10
31.99999975821981
 20
13.0000000544399
 30
0.0
 40
1.0
  0
CIRCLE
  5
7A0A
330
7A01
100
AcDbEntity
  8
0
100
AcDbCircle
 10
31.99999975821981
 20
3.000000054439908
 30
0.0
 40
1.0
  0
MTEXT
  5
7A0B
330
7A01
100
AcDbEntity
  8
0
100
AcDbMText
 10
11.99999975821981
 20
5.000000054439908
 30
0.0
 40
3.5
 41
11.0
 71
     1
 72
     5
  1
FG
 73
     1
 44
1.0
  0
LINE
  5
7A0C
330
7A01
100
AcDbEntity
  8
0
100
AcDbLine
 10
30.99999975821981
 20
3.000000054439908
 30
0.0
 11
23.99999975821981
 21
3.000000054439908
 31
0.0
  0
LINE
  5
7A0D
330
7A01
100
AcDbEntity
  8
0
100
AcDbLine
 10
22.99999975821981
 20
13.0000000544399
 30
0.0
 11
30.99999975821981
 21
13.0000000544399
 31
0.0
  0
LINE
  5
7A0E
330
7A01
100
AcDbEntity
  8
0
 62
     7
100
AcDbLine
 10
23.0261327532736
 20
13.0000000544399
 30
0.0
 11
23.0261327532736
 21
14.51304029186241
 31
0.0
  0
CIRCLE
  5
7A0F
330
7A01
100
AcDbEntity
  8
0
100
AcDbCircle
 10
50.99999975821981
 20
6.000000054439908
 30
0.0
 40
1.0
  0
CIRCLE
  5
7A10
330
7A01
100
AcDbEntity
  8
0
100
AcDbCircle
 10
31.99999975821981
 20
22.0000000544399
 30
0.0
 40
1.0
  0
MTEXT
  5
7A11
330
7A01
100
AcDbEntity
  8
0
100
AcDbMText
 10
16.99999975821981
 20
35.33333338777325
 30
0.0
 40
3.5
 41
33.0
 71
     1
 72
     5
  1
COSEL YS1012D-XMBI
 73
     1
 44
1.0
  0
LINE
  5
7A12
330
7A01
100
AcDbEntity
  8
0
100
AcDbLine
 10
22.99999975821981
 20
22.0000000544399
 30
0.0
 11
30.99999975821981
 21
22.0000000544399
 31
0.0
  0
LINE
  5
7A13
330
7A01
100
AcDbEntity
  8
0
 62
     7
100
AcDbLine
 10
23.0261327532736
 20
20.5130402918624
 30
0.0
 11
22.99999975821981
 21
22.0000000544399
 31
0.0
  0
ELLIPSE
  5
7A14
330
7A01
100
AcDbEntity
  8
0
 62
     7
100
AcDbEllipse
 10
23.0261327532736
 20
18.5130402918624
 30
0.0
 11
-0.7071067811865497
 21
0.7071067811865498
 31
0.0
210
0.0
220
0.0
230
1.0
 40
0.9999999999999941
 41
2.356194490192341
 42
5.497787143782135
  0
CIRCLE
  5
7A15
330
7A01
100
AcDbEntity
  8
0
100
AcDbCircle
 10
50.99999975821981
 20
19.0000000544399
 30
0.0
 40
1.0
  0
INSERT
  5
7A16
330
7A01
100
AcDbEntity
  8
0
100
AcDbBlockReference
  2
A$C794D5BF7
 10
104.9999997582198
 20
15.00000005443991
 30
0.0
  0
MTEXT
  5
7A17
330
7A01
100
AcDbEntity
  8
0
100
AcDbMText
 10
59.99999975821982
 20
17.50000005443991
 30
0.0
 40
3.5
 41
2.0
 71
     1
 72
     5
  1
+
 73
     1
 44
1.0
  0
LINE
  5
7A18
330
7A01
100
AcDbEntity
  8
0
 62
     7
100
AcDbLine
 10
122.9999997582198
 20
12.50000005443991
 30
0.0
 11
122.9999997582198
 21
19.0000000544399
 31
0.0
  0
INSERT
  5
7A19
330
7A01
100
AcDbEntity
  8
0
100
AcDbBlockReference
  2
A$C27CF61EB
 10
106.9999997582198
 20
6.000000054439908
 30
0.0
  0
LINE
  5
7A1A
330
7A01
100
AcDbEntity
  8
0
100
AcDbLine
 10
98.00000000940542
 20
13.00000053684647
 30
0.0
 11
98.00000000940542
 21
19.0000000544399
 31
0.0
  0
LINE
  5
7A1B
330
7A01
100
AcDbEntity
  8
0
100
AcDbLine
 10
71.99999975585251
 20
12.99999938598278
 30
0.0
 11
71.99999975585251
 21
19.0000000544399
 31
0.0
  0
LWPOLYLINE
  5
7A1C
330
7A01
100
AcDbEntity
  8
0
100
AcDbPolyline
 90
        4
 70
     1
 43
0.0
 10
76.99999975821981
 20
22.0000000544399
 10
92.99999975821981
 20
22.0000000544399
 10
92.99999975821981
 20
16.0000000544399
 10
76.99999975821981
 20
16.0000000544399
  0
LINE
  5
7A1D
330
7A01
100
AcDbEntity
  8
0
 62
     7
100
AcDbLine
 10
63.9999997582198
 20
13.5000000544399
 30
0.0
 11
63.9999997582198
 21
19.0000000544399
 31
0.0
  0
MTEXT
  5
7A1E
330
7A01
100
AcDbEntity
  8
0
100
AcDbMText
 10
71.99999975821981
 20
11.0000000544399
 30
0.0
 40
2.5
 41
12.0
 71
     1
 72
     5
  1
0.1\fMS UI Gothic|b0|i0|c128|p50;μ
 73
     1
 44
1.0
  0
INSERT
  5
7A1F
330
7A01
100
AcDbEntity
  8
0
100
AcDbBlockReference
  2
A$C51B93B19
 10
71.99999975821981
 20
14.0000000544399
 30
0.0
 50
270.0
  0
LINE
  5
7A20
330
7A01
100
AcDbEntity
  8
0
 62
     7
100
AcDbLine
 10
63.9999997582198
 20
12.7500000544399
 30
0.0
 11
63.9999997582198
 21
6.000000054439908
 31
0.0
  0
LINE
  5
7A21
330
7A01
100
AcDbEntity
  8
0
 62
     7
100
AcDbLine
 10
62.99999975821979
 20
13.5000000544399
 30
0.0
 11
64.99999975821978
 21
13.5000000544399
 31
0.0
  0
ELLIPSE
  5
7A22
330
7A01
100
AcDbEntity
  8
0
 62
     7
100
AcDbEllipse
 10
63.9999997582198
 20
10.6250000544399
 30
0.0
 11
1.502601910021415
 21
1.502601910021415
 31
0.0
210
0.0
220
0.0
230
-0.9999999999999998
 40
0.9999999999999971
 41
5.007829589516028
 42
5.987744698048245
  0
MTEXT
  5
7A23
330
7A01
100
AcDbEntity
  8
0
100
AcDbMText
 10
86.99999975821981
 20
11.0000000544399
 30
0.0
 40
2.5
 41
12.0
 71
     1
 72
     5
  1
0.1\fMS UI Gothic|b0|i0|c128|p50;μ
 73
     1
 44
1.0
  0
INSERT
  5
7A24
330
7A01
100
AcDbEntity
  8
0
100
AcDbBlockReference
  2
A$C13C01A67
 10
84.99999975821982
 20
12.0000000544399
 30
0.0
  0
LINE
  5
7A25
330
7A01
100
AcDbEntity
  8
0
100
AcDbLine
 10
84.99999975821982
 20
16.0000000544399
 30
0.0
 11
84.99999975821982
 21
6.000000054439908
 31
0.0
  0
MTEXT
  5
7A26
330
7A01
100
AcDbEntity
  8
0
100
AcDbMText
 10
124.9999997582198
 20
15.00000005443991
 30
0.0
 40
2.5
 41
10.0
 71
     1
 72
     5
  1
10E1
 73
     1
 44
1.0
  0
MTEXT
  5
7A27
330
7A01
100
AcDbEntity
  8
0
100
AcDbMText
 10
108.9999994585671
 20
11.06405264866754
 30
0.0
 40
2.5
 41
13.00000029965269
 71
     1
 72
     5
  1
470\fMS UI Gothic|b0|i0|c128|p50;μ
 73
     1
 44
1.0
  0
LINE
  5
7A28
330
7A01
100
AcDbEntity
  8
0
 62
     7
100
AcDbLine
 10
122.9999997582198
 20
11.5000000544399
 30
0.0
 11
122.9999997582198
 21
6.000000054439908
 31
0.0
  0
LINE
  5
7A29
330
7A01
100
AcDbEntity
  8
0
 62
     7
100
AcDbLine
 10
121.7499997582198
 20
11.5000000544399
 30
0.0
 11
122.9999997582198
 21
12.50000005443991
 31
0.0
  0
LINE
  5
7A2A
330
7A01
100
AcDbEntity
  8
0
 62
     7
100
AcDbLine
 10
122.9999997582198
 20
12.50000005443991
 30
0.0
 11
124.2499997582198
 21
11.5000000544399
 31
0.0
  0
SOLID
  5
7A2B
330
7A01
100
AcDbEntity
  8
0
 62
     7
100
AcDbTrace
 10
124.2499997582198
 20
11.5000000544399
 30
0.0
 11
122.9999997582198
 21
12.50000005443991
 31
0.0
 12
121.7499997582198
 22
11.5000000544399
 32
0.0
 13
121.7499997582198
 23
11.5000000544399
 33
0.0
  0
LINE
  5
7A2C
330
7A01
100
AcDbEntity
  8
0
 62
     7
100
AcDbLine
 10
124.2499997582198
 20
11.5000000544399
 30
0.0
 11
121.7499997582198
 21
11.5000000544399
 31
0.0
  0
LINE
  5
7A2D
330
7A01
100
AcDbEntity
  8
0
 62
     7
100
AcDbLine
 10
124.2499997582198
 20
12.50000005443991
 30
0.0
 11
121.7499997582198
 21
12.50000005443991
 31
0.0
  0
INSERT
  5
7A2E
330
7A01
100
AcDbEntity
  8
0
100
AcDbBlockReference
  2
GROUND
 10
130.9999997582198
 20
4.000000054439908
 30
0.0
 41
20.0
 42
20.0
  0
LINE
  5
7A2F
330
7A01
100
AcDbEntity
  8
0
100
AcDbLine
 10
130.9999997582198
 20
6.000000054439908
 30
0.0
 11
130.9999997582198
 21
4.000000054439908
 31
0.0
  0
LINE
  5
7A30
330
7A01
100
AcDbEntity
  8
0
100
AcDbLine
 10
92.99999975821981
 20
19.0000000544399
 30
0.0
 11
130.9999997582198
 21
19.0000000544399
 31
0.0
  0
MTEXT
  5
7A31
330
7A01
100
AcDbEntity
  8
0
100
AcDbMText
 10
77.99999975821982
 20
29.66666672110656
 30
0.0
 40
2.5
 41
14.0
 71
     1
 72
     5
  1
REG\PTA78L05F
 73
     1
 44
1.0
  0
MTEXT
  5
7A32
330
7A01
100
AcDbEntity
  8
0
100
AcDbMText
 10
57.99999966835002
 20
34.99999985685429
 30
0.0
 40
2.5
 41
13.0
 71
     1
 72
     5
  1
DC12V
 73
     1
 44
1.0
  0
LINE
  5
7A33
330
7A01
100
AcDbEntity
  8
0
100
AcDbLine
 10
63.99999966835003
 20
18.99999985685428
 30
0.0
 11
63.99999966835003
 21
27.99999985685428
 31
0.0
  0
LINE
  5
7A34
330
7A01
100
AcDbEntity
  8
0
100
AcDbLine
 10
61.99999966835003
 20
28.99999985685429
 30
0.0
 11
65.99999966835003
 21
28.99999985685429
 31
0.0
  0
LWPOLYLINE
  5
7A35
330
7A01
100
AcDbEntity
  8
0
100
AcDbPolyline
 90
        4
 70
     1
 43
0.0
 10
62.99999975821982
 20
30.00000005443991
 10
64.99999975821982
 20
30.00000005443991
 10
64.99999975821982
 20
28.0000000544399
 10
62.99999975821982
 20
28.0000000544399
  0
MTEXT
  5
7A36
330
7A01
100
AcDbEntity
  8
0
100
AcDbMText
 10
124.9999997582198
 20
35.00000005443991
 30
0.0
 40
2.5
 41
13.0
 71
     1
 72
     5
  1
DC5V
 73
     1
 44
1.0
  0
LINE
  5
7A37
330
7A01
100
AcDbEntity
  8
0
100
AcDbLine
 10
130.9999997582198
 20
19.0000000544399
 30
0.0
 11
130.9999997582198
 21
28.0000000544399
 31
0.0
  0
LINE
  5
7A38
330
7A01
100
AcDbEntity
  8
0
100
AcDbLine
 10
130.9999997582198
 20
19.0000000544399
 30
0.0
 11
130.9999997582198
 21
28.0000000544399
 31
0.0
  0
LINE
  5
7A39
330
7A01
100
AcDbEntity
  8
0
100
AcDbLine
 10
128.9999997582198
 20
29.0000000544399
 30
0.0
 11
132.9999997582198
 21
29.0000000544399
 31
0.0
  0
CIRCLE
  5
7A3A
330
7A01
100
AcDbEntity
  8
0
100
AcDbCircle
 10
130.9999997582198
 20
29.0000000544399
 30
0.0
 40
1.0
  0
ENDBLK
  5
7A3C
330
7A01
100
AcDbEntity
  8
0
100
AcDbBlockEnd
  0
BLOCK
  5
7AB6
330
7AA2
100
AcDbEntity
  8
0
100
AcDbBlockBegin
  2
A$C1DFA290A
 70
     0
 10
0.0
 20
0.0
 30
0.0
  3
A$C1DFA290A
  1

  0
INSERT
  5
7AA3
330
7AA2
100
AcDbEntity
  8
0
100
AcDbBlockReference
  2
A$C473E29B7
 10
20.99999971466723
 20
33.99999992411292
 30
0.0
  0
INSERT
  5
7AA4
330
7AA2
100
AcDbEntity
  8
0
100
AcDbBlockReference
  2
LAMP_INCANDESCENT
 10
22.00000030665714
 20
58.99999990400798
 30
0.0
 50
90.0
  0
INSERT
  5
7AA5
330
7AA2
100
AcDbEntity
  8
0
100
AcDbBlockReference
  2
SPEAKER
 10
24.99999981641588
 20
56.9999999186802
 30
0.0
 41
1.199999999999999
 42
1.199999999999999
  0
LINE
  5
7AA6
330
7AA2
100
AcDbEntity
  8
0
100
AcDbLine
 10
21.99999954490823
 20
45.99999986356474
 30
0.0
 11
21.99999981641588
 21
53.9999999186802
 31
0.0
  0
LINE
  5
7AA7
330
7AA2
100
AcDbEntity
  8
0
100
AcDbLine
 10
21.99999981641588
 20
53.9999999186802
 30
0.0
 11
24.99999981641588
 21
53.9999999186802
 31
0.0
  0
LINE
  5
7AA8
330
7AA2
100
AcDbEntity
  8
0
100
AcDbLine
 10
21.99999981641588
 20
56.9999999186802
 30
0.0
 11
24.99999981641588
 21
56.9999999186802
 31
0.0
  0
LINE
  5
7AA9
330
7AA2
100
AcDbEntity
  8
0
100
AcDbLine
 10
22.00000030665714
 20
58.99999990400798
 30
0.0
 11
21.99999981641588
 21
56.9999999186802
 31
0.0
  0
INSERT
  5
7AAA
330
7AA2
100
AcDbEntity
  8
0
100
AcDbBlockReference
  2
A$C5E282CF1
 10
19.99999981641588
 20
68.9999999186802
 30
0.0
  0
LINE
  5
7AAB
330
7AA2
100
AcDbEntity
  8
0
100
AcDbLine
 10
21.99999981641588
 20
17.9999999186802
 30
0.0
 11
21.99999981641588
 21
3.999999918680202
 31
0.0
  0
INSERT
  5
7AAC
330
7AA2
100
AcDbEntity
  8
0
100
AcDbBlockReference
  2
A$C428705A6
 10
10.99999981641587
 20
5.999999918680202
 30
0.0
  0
LINE
  5
7AAD
330
7AA2
100
AcDbEntity
  8
0
100
AcDbLine
 10
11.99999981641588
 20
5.999999918680202
 30
0.0
 11
21.99999981641588
 21
5.999999918680202
 31
0.0
  0
INSERT
  5
7AAE
330
7AA2
100
AcDbEntity
  8
0
100
AcDbBlockReference
  2
A$C59E22092
 10
19.99999981641588
 20
-0.0000000813197971
 30
0.0
  0
MTEXT
  5
7AAF
330
7AA2
100
AcDbEntity
  8
0
100
AcDbMText
 10
2.999999816415879
 20
26.9999999186802
 30
0.0
 40
2.5
 41
7.0
 71
     1
 72
     5
  1
2k
 73
     1
 44
1.0
  0
INSERT
  5
7AB0
330
7AA2
100
AcDbEntity
  8
0
100
AcDbBlockReference
  2
A$C3D3513C1
 10
-0.0000001835841204
 20
21.9999999186802
 30
0.0
  0
INSERT
  5
7AB1
330
7AA2
100
AcDbEntity
  8
0
100
AcDbBlockReference
  2
TRANSISTOR_NPN
 10
11.99999981641588
 20
22.9999999186802
 30
0.0
  0
MTEXT
  5
7AB2
330
7AA2
100
AcDbEntity
  8
0
100
AcDbMText
 10
13.99999981641588
 20
11.9999999186802
 30
0.0
 40
2.5
 41
7.0
 71
     1
 72
     5
  1
15k
 73
     1
 44
1.0
  0
LINE
  5
7AB3
330
7AA2
100
AcDbEntity
  8
0
100
AcDbLine
 10
11.99999981641588
 20
17.9999999186802
 30
0.0
 11
11.99999981641588
 21
22.9999999186802
 31
0.0
  0
MTEXT
  5
7AB4
330
7AA2
100
AcDbEntity
  8
0
100
AcDbMText
 10
12.99999998803662
 20
41.99999996974765
 30
0.0
 40
2.5
 41
7.0
 71
     1
 72
     5
  1
10k
 73
     1
 44
1.0
  0
LINE
  5
7AB5
330
7AA2
100
AcDbEntity
  8
0
100
AcDbLine
 10
21.99999981641588
 20
27.9999999186802
 30
0.0
 11
21.99999981641588
 21
33.9999999186802
 31
0.0
  0
ENDBLK
  5
7AB7
330
7AA2
100
AcDbEntity
  8
0
100
AcDbBlockEnd
  0
BLOCK
  5
7AF6
330
7AF2
100
AcDbEntity
  8
0
100
AcDbBlockBegin
  2
A$C245A6C91
 70
     0
 10
0.0
 20
0.0
 30
0.0
  3
A$C245A6C91
  1

  0
LINE
  5
7AF3
330
7AF2
100
AcDbEntity
  8
0
100
AcDbLine
 10
-0.0000000742713837
 20
6.999999784737894
 30
0.0
 11
5.999999925728616
 21
6.999999784737894
 31
0.0
  0
CIRCLE
  5
7AF4
330
7AF2
100
AcDbEntity
  8
0
100
AcDbCircle
 10
2.999999925728616
 20
6.999999784737894
 30
0.0
 40
1.0
  0
LINE
  5
7AF5
330
7AF2
100
AcDbEntity
  8
0
100
AcDbLine
 10
2.999999925728616
 20
-0.0000002152620766
 30
0.0
 11
2.999999925728616
 21
5.999999784737894
 31
0.0
  0
ENDBLK
  5
7AF7
330
7AF2
100
AcDbEntity
  8
0
100
AcDbBlockEnd
  0
BLOCK
  5
7AFA
330
7AF8
100
AcDbEntity
  8
0
100
AcDbBlockBegin
  2
A$C22302A0B
 70
     0
 10
0.0
 20
0.0
 30
0.0
  3
A$C22302A0B
  1

  0
INSERT
  5
7AF9
330
7AF8
100
AcDbEntity
  8
0
100
AcDbBlockReference
  2
RESISTOR
 10
0.6249998102177301
 20
0.0000000519636245
 30
0.0
 50
90.0
  0
ENDBLK
  5
7AFB
330
7AF8
100
AcDbEntity
  8
0
100
AcDbBlockEnd
  0
BLOCK
  5
7B07
330
7AFC
100
AcDbEntity
  8
0
100
AcDbBlockBegin
  2
ZENER_DIODE
 70
     0
 10
0.0
 20
0.0
 30
0.0
  3
ZENER_DIODE
  1

  0
LINE
  5
7AFD
330
7AFC
100
AcDbEntity
  8
0
 62
     7
100
AcDbLine
 10
5.000000000000004
 20
3.750025000000001
 30
0.0
 11
6.25
 21
2.500025000000005
 31
0.0
  0
LINE
  5
7AFE
330
7AFC
100
AcDbEntity
  8
0
 62
     7
100
AcDbLine
 10
3.749999999999997
 20
0.0
 30
0.0
 11
3.749999999999997
 21
2.500025000000005
 31
0.0
  0
LINE
  5
7AFF
330
7AFC
100
AcDbEntity
  8
0
 62
     7
100
AcDbLine
 10
3.749999999999997
 20
2.500025000000005
 30
0.0
 11
6.25
 21
0.0
 31
0.0
  0
LINE
  5
7B00
330
7AFC
100
AcDbEntity
  8
0
 62
     7
100
AcDbLine
 10
0.0
 20
0.0
 30
0.0
 11
3.749999999999997
 21
0.0
 31
0.0
  0
LINE
  5
7B01
330
7AFC
100
AcDbEntity
  8
0
 62
     7
100
AcDbLine
 10
6.25
 20
-2.499974999999998
 30
0.0
 11
7.500000000000007
 21
-3.749974999999994
 31
0.0
  0
SOLID
  5
7B02
330
7AFC
100
AcDbEntity
  8
0
 62
     7
100
AcDbTrace
 10
3.749999999999997
 20
-2.499974999999998
 30
0.0
 11
6.25
 21
0.0
 31
0.0
 12
3.749999999999997
 22
2.500025000000005
 32
0.0
 13
3.749999999999997
 23
2.500025000000005
 33
0.0
  0
LINE
  5
7B03
330
7AFC
100
AcDbEntity
  8
0
 62
     7
100
AcDbLine
 10
6.25
 20
2.500025000000005
 30
0.0
 11
6.25
 21
-2.499974999999998
 31
0.0
  0
LINE
  5
7B04
330
7AFC
100
AcDbEntity
  8
0
 62
     7
100
AcDbLine
 10
3.749999999999997
 20
-2.499974999999998
 30
0.0
 11
3.749999999999997
 21
0.0
 31
0.0
  0
LINE
  5
7B05
330
7AFC
100
AcDbEntity
  8
0
 62
     7
100
AcDbLine
 10
6.25
 20
0.0
 30
0.0
 11
3.749999999999997
 21
-2.499974999999998
 31
0.0
  0
LINE
  5
7B06
330
7AFC
100
AcDbEntity
  8
0
 62
     7
100
AcDbLine
 10
6.25
 20
0.0
 30
0.0
 11
9.999999999999998
 21
0.0
 31
0.0
  0
ENDBLK
  5
7B08
330
7AFC
100
AcDbEntity
  8
0
100
AcDbBlockEnd
  0
BLOCK
  5
7B15
330
7B09
100
AcDbEntity
  8
0
100
AcDbBlockBegin
  2
A$C3FD64A94
 70
     0
 10
0.0
 20
0.0
 30
0.0
  3
A$C3FD64A94
  1

  0
LINE
  5
7B0A
330
7B09
100
AcDbEntity
  8
0
100
AcDbLine
 10
0.073275463759046
 20
1.946341408832324
 30
0.0
 11
1.184719566790704
 21
1.946341408832324
 31
0.0
  0
LINE
  5
7B0B
330
7B09
100
AcDbEntity
  8
0
100
AcDbLine
 10
0.6289978598055086
 20
7.894590087602466
 30
0.0
 11
0.6289978598055086
 21
6.621618449335585
 31
0.0
  0
LINE
  5
7B0C
330
7B09
100
AcDbEntity
  8
0
100
AcDbLine
 10
0.073275463759046
 20
7.223386696747866
 30
0.0
 11
1.207874781469513
 21
7.223386696747866
 31
0.0
  0
LINE
  5
7B0D
330
7B09
100
AcDbEntity
  8
0
100
AcDbLine
 10
3.590012338633599
 20
5.999999938765597
 30
0.0
 11
2.845239225292928
 21
2.999999938765597
 31
0.0
  0
LINE
  5
7B0E
330
7B09
100
AcDbEntity
  8
0
100
AcDbLine
 10
2.765728159358587
 20
5.99999993876559
 30
0.0
 11
2.020955046017931
 21
2.999999938765597
 31
0.0
  0
LINE
  5
7B0F
330
7B09
100
AcDbEntity
  8
0
100
AcDbLine
 10
1.941443980083619
 20
5.999999938765597
 30
0.0
 11
1.196670866742934
 21
2.999999938765597
 31
0.0
  0
LINE
  5
7B10
330
7B09
100
AcDbEntity
  8
0
100
AcDbLine
 10
1.117159800808622
 20
5.999999938765597
 30
0.0
 11
0.3723866874679516
 21
2.999999938765597
 31
0.0
  0
LINE
  5
7B11
330
7B09
100
AcDbEntity
  8
0
100
AcDbLine
 10
0.0000001307976163
 20
2.999999938765597
 30
0.0
 11
4.000000130797616
 21
2.999999938765597
 31
0.0
  0
LINE
  5
7B12
330
7B09
100
AcDbEntity
  8
0
100
AcDbLine
 10
0.0000001307976163
 20
5.999999938765597
 30
0.0
 11
4.000000130797616
 21
5.999999938765597
 31
0.0
  0
LINE
  5
7B13
330
7B09
100
AcDbEntity
  8
0
 62
     7
100
AcDbLine
 10
2.000000130797616
 20
5.999999938765597
 30
0.0
 11
2.000000130797616
 21
9.999999938765611
 31
0.0
  0
LINE
  5
7B14
330
7B09
100
AcDbEntity
  8
0
 62
     7
100
AcDbLine
 10
2.000000130797616
 20
2.99999993876559
 30
0.0
 11
2.000000130797616
 21
-0.0000000612344024
 31
0.0
  0
ENDBLK
  5
7B16
330
7B09
100
AcDbEntity
  8
0
100
AcDbBlockEnd
  0
BLOCK
  5
7BE5
330
7B19
100
AcDbEntity
  8
0
100
AcDbBlockBegin
  2
A$C1AE41025
 70
     0
 10
0.0
 20
0.0
 30
0.0
  3
A$C1AE41025
  1

  0
MTEXT
  5
7B1A
330
7B19
100
AcDbEntity
  8
0
100
AcDbMText
 10
84.00000004803269
 20
154.4999999840451
 30
0.0
 40
3.5
 41
6.0
 71
     1
 72
     5
  1
7
  7
STYLE1
 73
     1
 44
1.0
  0
MTEXT
  5
7B1B
330
7B19
100
AcDbEntity
  8
0
100
AcDbMText
 10
67.00000004803269
 20
147.4999999840451
 30
0.0
 40
3.5
 41
6.0
 71
     1
 72
     5
  1
6
  7
STYLE1
 73
     1
 44
1.0
  0
LINE
  5
7B1C
330
7B19
100
AcDbEntity
  8
0
100
AcDbLine
 10
73.00000004803269
 20
138.4999999840451
 30
0.0
 11
80.0000000480327
 21
138.4999999840451
 31
0.0
  0
CIRCLE
  5
7B1D
330
7B19
100
AcDbEntity
  8
0
100
AcDbCircle
 10
85.00000004803268
 20
143.4999999840451
 30
0.0
 40
2.0
  0
CIRCLE
  5
7B1E
330
7B19
100
AcDbEntity
  8
0
100
AcDbCircle
 10
71.00000004803269
 20
138.4999999840451
 30
0.0
 40
2.0
  0
LINE
  5
7B1F
330
7B19
100
AcDbEntity
  8
0
100
AcDbLine
 10
80.0000000480327
 20
99.49999998404514
 30
0.0
 11
89.00000004803269
 21
99.5000249840451
 31
0.0
  0
LINE
  5
7B20
330
7B19
100
AcDbEntity
  8
0
100
AcDbLine
 10
80.0000000480327
 20
125.4999999840451
 30
0.0
 11
80.0000000480327
 21
99.49999998404514
 31
0.0
  0
LINE
  5
7B21
330
7B19
100
AcDbEntity
  8
0
100
AcDbLine
 10
85.00000004803268
 20
125.4999999840451
 30
0.0
 11
85.00000004803268
 21
141.4999999840451
 31
0.0
  0
LINE
  5
7B22
330
7B19
100
AcDbEntity
  8
0
100
AcDbLine
 10
80.0000000480327
 20
125.4999999840451
 30
0.0
 11
80.0000000480327
 21
138.4999999840451
 31
0.0
  0
LINE
  5
7B23
330
7B19
100
AcDbEntity
  8
0
100
AcDbLine
 10
11.00000004803268
 20
75.49999994143712
 30
0.0
 11
11.00000004803268
 21
67.49999998404513
 31
0.0
  0
LINE
  5
7B24
330
7B19
100
AcDbEntity
  8
0
100
AcDbLine
 10
11.00000004803268
 20
85.49999994143712
 30
0.0
 11
11.00000004803268
 21
89.49999998404512
 31
0.0
  0
LWPOLYLINE
  5
7B25
330
7B19
100
AcDbEntity
  8
0
 62
     7
100
AcDbPolyline
 90
       10
 70
     0
 43
0.0
 10
11.00000004803268
 20
75.49999994143712
 10
11.00000004803268
 20
76.74999994143712
 10
10.37500004803268
 20
77.37499994143712
 10
11.62500004803268
 20
78.62499994143712
 10
10.37500004803268
 20
79.87499994143712
 10
11.62500004803268
 20
81.12499994143712
 10
10.37500004803268
 20
82.37499994143712
 10
11.62500004803268
 20
83.62499994143712
 10
11.00000004803268
 20
84.24999994143712
 10
11.00000004803268
 20
85.49999994143712
  0
LINE
  5
7B26
330
7B19
100
AcDbEntity
  8
0
100
AcDbLine
 10
12.00000004803269
 20
67.49999998404513
 30
0.0
 11
5.000000048032688
 21
67.49999998404513
 31
0.0
  0
LINE
  5
7B27
330
7B19
100
AcDbEntity
  8
0
100
AcDbLine
 10
12.00000004803269
 20
89.49999998404512
 30
0.0
 11
5.000000048032688
 21
89.49999998404512
 31
0.0
  0
LINE
  5
7B28
330
7B19
100
AcDbEntity
  8
0
100
AcDbLine
 10
12.00000004803269
 20
89.49999998404512
 30
0.0
 11
12.00000004803269
 21
89.49999998404512
 31
0.0
  0
LINE
  5
7B29
330
7B19
100
AcDbEntity
  8
0
100
AcDbLine
 10
41.00000004803269
 20
67.49999998404513
 30
0.0
 11
41.00000004803269
 21
79.37499998404513
 31
0.0
  0
INSERT
  5
7B2A
330
7B19
100
AcDbEntity
  8
0
100
AcDbBlockReference
  2
DIODE
 10
41.00000004803269
 20
79.37499998404513
 30
0.0
 50
90.0
  0
MTEXT
  5
7B2B
330
7B19
100
AcDbEntity
  8
0
100
AcDbMText
 10
152.5000000480327
 20
101.4999999840451
 30
0.0
 40
2.5
 41
3.0
 71
     5
 72
     5
  1
14
  7
STYLE1
 73
     1
 44
1.0
  0
MTEXT
  5
7B2C
330
7B19
100
AcDbEntity
  8
0
100
AcDbMText
 10
134.5000000480326
 20
96.49999998404513
 30
0.0
 40
2.5
 41
3.0
 71
     5
 72
     5
  1
9
  7
STYLE1
 73
     1
 44
1.0
  0
MTEXT
  5
7B2D
330
7B19
100
AcDbEntity
  8
0
100
AcDbMText
 10
134.5000000480326
 20
106.4999999840451
 30
0.0
 40
2.5
 41
3.0
 71
     5
 72
     5
  1
8
  7
STYLE1
 73
     1
 44
1.0
  0
MTEXT
  5
7B2E
330
7B19
100
AcDbEntity
  8
0
100
AcDbMText
 10
141.5000000480326
 20
99.49999998404514
 30
0.0
 40
2.5
 41
11.0
 71
     5
 72
     5
  1
IC1
  7
STYLE1
 73
     1
 44
1.0
  0
MTEXT
  5
7B2F
330
7B19
100
AcDbEntity
  8
0
100
AcDbMText
 10
103.5000000480326
 20
88.49999998404513
 30
0.0
 40
2.5
 41
3.0
 71
     5
 72
     5
  1
12
  7
STYLE1
 73
     1
 44
1.0
  0
MTEXT
  5
7B30
330
7B19
100
AcDbEntity
  8
0
100
AcDbMText
 10
102.5000000480326
 20
99.99999998404513
 30
0.0
 40
2.5
 41
3.0
 71
     5
 72
     5
  1
3
  7
STYLE1
 73
     1
 44
1.0
  0
MTEXT
  5
7B31
330
7B19
100
AcDbEntity
  8
0
100
AcDbMText
 10
110.5000000480326
 20
96.49999998404513
 30
0.0
 40
2.5
 41
3.0
 71
     5
 72
     5
  1
1
  7
STYLE1
 73
     1
 44
1.0
  0
MTEXT
  5
7B32
330
7B19
100
AcDbEntity
  8
0
100
AcDbMText
 10
92.00000004803269
 20
91.49999998404513
 30
0.0
 40
2.5
 41
4.0
 71
     5
 72
     5
  1
7
  7
STYLE1
 73
     1
 44
1.0
  0
MTEXT
  5
7B33
330
7B19
100
AcDbEntity
  8
0
100
AcDbMText
 10
92.00000004803269
 20
101.4999999840451
 30
0.0
 40
2.5
 41
4.0
 71
     5
 72
     5
  1
6
  7
STYLE1
 73
     1
 44
1.0
  0
MTEXT
  5
7B34
330
7B19
100
AcDbEntity
  8
0
100
AcDbMText
 10
98.5000000480327
 20
94.49999998404512
 30
0.0
 40
2.5
 41
9.0
 71
     5
 72
     5
  1
IC1
  7
STYLE1
 73
     1
 44
1.0
  0
MTEXT
  5
7B35
330
7B19
100
AcDbEntity
  8
0
100
AcDbMText
 10
48.00000004803269
 20
146.4999999840451
 30
0.0
 40
2.5
 41
4.0
 71
     5
 72
     5
  1
2
  7
STYLE1
 73
     1
 44
1.0
  0
MTEXT
  5
7B36
330
7B19
100
AcDbEntity
  8
0
100
AcDbMText
 10
28.50000004803268
 20
142.4999999840451
 30
0.0
 40
2.5
 41
5.0
 71
     5
 72
     5
  1
4
 73
     1
 44
1.0
  0
MTEXT
  5
7B37
330
7B19
100
AcDbEntity
  8
0
100
AcDbMText
 10
28.50000004803268
 20
152.4999999840451
 30
0.0
 40
2.5
 41
5.0
 71
     5
 72
     5
  1
5
 73
     1
 44
1.0
  0
MTEXT
  5
7B38
330
7B19
100
AcDbEntity
  8
0
100
AcDbMText
 10
35.50000004803269
 20
144.4999999840451
 30
0.0
 40
2.5
 41
9.0
 71
     5
 72
     5
  1
IC1
 73
     1
 44
1.0
  0
CIRCLE
  5
7B39
330
7B19
100
AcDbEntity
  8
0
100
AcDbCircle
 10
213.0000000480326
 20
128.4999999840451
 30
0.0
 40
0.2
  0
CIRCLE
  5
7B3A
330
7B19
100
AcDbEntity
  8
0
100
AcDbCircle
 10
213.0000000480326
 20
103.4999750360087
 30
0.0
 40
0.2
  0
CIRCLE
  5
7B3B
330
7B19
100
AcDbEntity
  8
0
100
AcDbCircle
 10
205.9999500480326
 20
103.4999750360087
 30
0.0
 40
0.2
  0
CIRCLE
  5
7B3C
330
7B19
100
AcDbEntity
  8
0
100
AcDbCircle
 10
193.6249748582504
 20
113.4999999840451
 30
0.0
 40
0.2
  0
CIRCLE
  5
7B3D
330
7B19
100
AcDbEntity
  8
0
100
AcDbCircle
 10
180.9999750480326
 20
113.4999999840451
 30
0.0
 40
0.2
  0
CIRCLE
  5
7B3E
330
7B19
100
AcDbEntity
  8
0
100
AcDbCircle
 10
180.9999750480326
 20
89.50000003600875
 30
0.0
 40
0.2
  0
CIRCLE
  5
7B3F
330
7B19
100
AcDbEntity
  8
0
100
AcDbCircle
 10
168.6249998582504
 20
99.50000003600877
 30
0.0
 40
0.2
  0
CIRCLE
  5
7B40
330
7B19
100
AcDbEntity
  8
0
100
AcDbCircle
 10
156.0000000480326
 20
99.50002498404511
 30
0.0
 40
0.2
  0
CIRCLE
  5
7B41
330
7B19
100
AcDbEntity
  8
0
100
AcDbCircle
 10
226.0000000480327
 20
103.4999999840451
 30
0.0
 40
1.0
  0
CIRCLE
  5
7B42
330
7B19
100
AcDbEntity
  8
0
100
AcDbCircle
 10
226.0000000480327
 20
128.4999999840451
 30
0.0
 40
1.0
  0
LINE
  5
7B43
330
7B19
100
AcDbEntity
  8
0
100
AcDbLine
 10
205.9999500480326
 20
128.4999999840451
 30
0.0
 11
225.0000000480326
 21
128.4999999840451
 31
0.0
  0
LINE
  5
7B44
330
7B19
100
AcDbEntity
  8
0
100
AcDbLine
 10
213.0000000480326
 20
119.7499999840451
 30
0.0
 11
213.0000000480326
 21
128.4999999840451
 31
0.0
  0
LINE
  5
7B45
330
7B19
100
AcDbEntity
  8
0
100
AcDbLine
 10
213.0000000480326
 20
109.7499999840451
 30
0.0
 11
213.0000000480326
 21
103.4999750360087
 31
0.0
  0
LINE
  5
7B46
330
7B19
100
AcDbEntity
  8
0
100
AcDbLine
 10
205.9999500480326
 20
103.4999750360087
 30
0.0
 11
225.0000000480326
 21
103.4999750360087
 31
0.0
  0
LINE
  5
7B47
330
7B19
100
AcDbEntity
  8
0
 62
     7
100
AcDbLine
 10
213.0000000480326
 20
115.9999999840451
 30
0.0
 11
213.0000000480326
 21
119.7499999840451
 31
0.0
  0
LINE
  5
7B48
330
7B19
100
AcDbEntity
  8
0
 62
     7
100
AcDbLine
 10
213.0000000480326
 20
115.9999999840451
 30
0.0
 11
215.4999750480326
 21
113.4999999840451
 31
0.0
  0
LINE
  5
7B49
330
7B19
100
AcDbEntity
  8
0
 62
     7
100
AcDbLine
 10
215.4999750480326
 20
113.4999999840451
 30
0.0
 11
213.0000000480326
 21
113.4999999840451
 31
0.0
  0
LINE
  5
7B4A
330
7B19
100
AcDbEntity
  8
0
 62
     7
100
AcDbLine
 10
210.4999750480327
 20
115.9999999840451
 30
0.0
 11
215.4999750480326
 21
115.9999999840451
 31
0.0
  0
SOLID
  5
7B4B
330
7B19
100
AcDbEntity
  8
0
 62
     7
100
AcDbTrace
 10
215.4999750480326
 20
113.4999999840451
 30
0.0
 11
213.0000000480326
 21
115.9999999840451
 31
0.0
 12
210.4999750480327
 22
113.4999999840451
 32
0.0
 13
210.4999750480327
 23
113.4999999840451
 33
0.0
  0
LINE
  5
7B4C
330
7B19
100
AcDbEntity
  8
0
 62
     7
100
AcDbLine
 10
215.4999750480326
 20
115.9999999840451
 30
0.0
 11
216.7499750480327
 21
117.2499999840451
 31
0.0
  0
LINE
  5
7B4D
330
7B19
100
AcDbEntity
  8
0
 62
     7
100
AcDbLine
 10
213.0000000480326
 20
109.7499999840451
 30
0.0
 11
213.0000000480326
 21
113.4999999840451
 31
0.0
  0
LINE
  5
7B4E
330
7B19
100
AcDbEntity
  8
0
 62
     7
100
AcDbLine
 10
210.4999750480327
 20
113.4999999840451
 30
0.0
 11
213.0000000480326
 21
115.9999999840451
 31
0.0
  0
LINE
  5
7B4F
330
7B19
100
AcDbEntity
  8
0
 62
     7
100
AcDbLine
 10
213.0000000480326
 20
113.4999999840451
 30
0.0
 11
210.4999750480327
 21
113.4999999840451
 31
0.0
  0
LINE
  5
7B50
330
7B19
100
AcDbEntity
  8
0
 62
     7
100
AcDbLine
 10
209.2499750480326
 20
114.7499999840451
 30
0.0
 11
210.4999750480327
 21
115.9999999840451
 31
0.0
  0
INSERT
  5
7B51
330
7B19
100
AcDbEntity
  8
0
100
AcDbBlockReference
  2
GROUND
 10
205.9999500480326
 20
97.49997498404516
 30
0.0
  0
INSERT
  5
7B52
330
7B19
100
AcDbEntity
  8
0
100
AcDbBlockReference
  2
GROUND
 10
180.9999750480326
 20
83.49999998404513
 30
0.0
  0
LINE
  5
7B53
330
7B19
100
AcDbEntity
  8
0
 62
     7
100
AcDbLine
 10
203.5628750480326
 20
109.3373999840451
 30
0.0
 11
203.9032750480326
 21
109.8615749840451
 31
0.0
  0
SOLID
  5
7B54
330
7B19
100
AcDbEntity
  8
0
 62
     7
100
AcDbTrace
 10
203.5628750480326
 20
109.3373999840451
 30
0.0
 11
205.9999500480326
 21
108.4999749840451
 31
0.0
 12
204.2436750480327
 22
110.3857499840451
 32
0.0
 13
204.2436750480327
 23
110.3857499840451
 33
0.0
  0
LINE
  5
7B55
330
7B19
100
AcDbEntity
  8
0
 62
     7
100
AcDbLine
 10
204.2436750480327
 20
110.3857499840451
 30
0.0
 11
205.9999500480326
 21
108.4999749840451
 31
0.0
  0
LINE
  5
7B56
330
7B19
100
AcDbEntity
  8
0
 62
     7
100
AcDbLine
 10
205.9999500480326
 20
108.4999749840451
 30
0.0
 11
203.5628750480326
 21
109.3373999840451
 31
0.0
  0
LINE
  5
7B57
330
7B19
100
AcDbEntity
  8
0
 62
     7
100
AcDbLine
 10
195.9999750480326
 20
113.4999749840451
 30
0.0
 11
200.9999500480327
 21
113.4999749840451
 31
0.0
  0
LINE
  5
7B58
330
7B19
100
AcDbEntity
  8
0
 62
     7
100
AcDbLine
 10
200.9999500480327
 20
118.4999749840451
 30
0.0
 11
200.9999500480327
 21
108.4999749840451
 31
0.0
  0
LINE
  5
7B59
330
7B19
100
AcDbEntity
  8
0
 62
     7
100
AcDbLine
 10
203.9032750480326
 20
109.8615749840451
 30
0.0
 11
201.0288000480326
 21
111.7741499840451
 31
0.0
  0
LINE
  5
7B5A
330
7B19
100
AcDbEntity
  8
0
 62
     7
100
AcDbLine
 10
205.9999500480326
 20
118.4999749840451
 30
0.0
 11
200.9999500480327
 21
114.7499749840451
 31
0.0
  0
INSERT
  5
7B5B
330
7B19
100
AcDbEntity
  8
0
100
AcDbBlockReference
  2
RESISTOR
 10
193.6249748582504
 20
103.4999750360087
 30
0.0
 50
90.0
  0
LWPOLYLINE
  5
7B5C
330
7B19
100
AcDbEntity
  8
0
 62
     7
100
AcDbPolyline
 90
       10
 70
     0
 43
0.0
 10
180.9999750480326
 20
113.4999999840451
 10
182.2499750480327
 20
113.4999999840451
 10
182.8749750480326
 20
114.1249999840451
 10
184.1249750480326
 20
112.8749999840451
 10
185.3749750480327
 20
114.1249999840451
 10
186.6249750480326
 20
112.8749999840451
 10
187.8749750480326
 20
114.1249999840451
 10
189.1249750480326
 20
112.8749999840451
 10
189.7499750480326
 20
113.4999999840451
 10
190.9999750480326
 20
113.4999999840451
  0
LINE
  5
7B5D
330
7B19
100
AcDbEntity
  8
0
100
AcDbLine
 10
190.9999750480326
 20
113.4999999840451
 30
0.0
 11
195.9999750480326
 21
113.4999749840451
 31
0.0
  0
LINE
  5
7B5E
330
7B19
100
AcDbEntity
  8
0
100
AcDbLine
 10
205.9999500480326
 20
108.4999749840451
 30
0.0
 11
205.9999500480326
 21
97.49997498404516
 31
0.0
  0
LINE
  5
7B5F
330
7B19
100
AcDbEntity
  8
0
100
AcDbLine
 10
193.6249748582504
 20
103.4999750360087
 30
0.0
 11
205.9999500480326
 21
103.4999750360087
 31
0.0
  0
LINE
  5
7B60
330
7B19
100
AcDbEntity
  8
0
100
AcDbLine
 10
205.9999500480326
 20
118.4999749840451
 30
0.0
 11
205.9999500480326
 21
128.4999999840451
 31
0.0
  0
INSERT
  5
7B61
330
7B19
100
AcDbEntity
  8
0
100
AcDbBlockReference
  2
A$C245A6C91
 10
178.0000000480326
 20
128.4999999840451
 30
0.0
  0
LWPOLYLINE
  5
7B62
330
7B19
100
AcDbEntity
  8
0
 62
     7
100
AcDbPolyline
 90
       10
 70
     0
 43
0.0
 10
180.9999750480326
 20
118.4999999840451
 10
180.9999750480326
 20
119.7499999840451
 10
180.3749750480326
 20
120.3749999840451
 10
181.6249750480326
 20
121.6249999840451
 10
180.3749750480326
 20
122.8749999840451
 10
181.6249750480326
 20
124.1249999840451
 10
180.3749750480326
 20
125.3749999840451
 10
181.6249750480326
 20
126.6249999840451
 10
180.9999750480326
 20
127.2499999840451
 10
180.9999750480326
 20
128.4999999840451
  0
LINE
  5
7B63
330
7B19
100
AcDbEntity
  8
0
100
AcDbLine
 10
180.9999750480326
 20
104.4999999840451
 30
0.0
 11
180.9999750480326
 21
118.4999999840451
 31
0.0
  0
LINE
  5
7B64
330
7B19
100
AcDbEntity
  8
0
100
AcDbLine
 10
168.6249998582504
 20
89.50000003600875
 30
0.0
 11
180.9999750480326
 21
89.50000003600875
 31
0.0
  0
LINE
  5
7B65
330
7B19
100
AcDbEntity
  8
0
100
AcDbLine
 10
180.9999750480326
 20
94.49999998404512
 30
0.0
 11
180.9999750480326
 21
83.49999998404513
 31
0.0
  0
LINE
  5
7B66
330
7B19
100
AcDbEntity
  8
0
100
AcDbLine
 10
166.0000000480327
 20
99.50002498404511
 30
0.0
 11
171.0000000480326
 21
99.49999998404514
 31
0.0
  0
INSERT
  5
7B67
330
7B19
100
AcDbEntity
  8
0
100
AcDbBlockReference
  2
TRANSISTOR_NPN
 10
171.0000000480326
 20
99.49999998404514
 30
0.0
  0
INSERT
  5
7B68
330
7B19
100
AcDbEntity
  8
0
100
AcDbBlockReference
  2
A$C22302A0B
 10
168.0000000480326
 20
89.49999998404512
 30
0.0
  0
INSERT
  5
7B69
330
7B19
100
AcDbEntity
  8
0
100
AcDbBlockReference
  2
RESISTOR
 10
156.0000000480326
 20
99.50002498404511
 30
0.0
  0
INSERT
  5
7B6A
330
7B19
100
AcDbEntity
  8
0
100
AcDbBlockReference
  2
A$C245A6C91
 10
153.0000000480326
 20
109.4999999840451
 30
0.0
  0
INSERT
  5
7B6B
330
7B19
100
AcDbEntity
  8
0
100
AcDbBlockReference
  2
RESISTOR
 10
156.0000000480326
 20
99.50002498404511
 30
0.0
 50
90.0
  0
CIRCLE
  5
7B6C
330
7B19
100
AcDbEntity
  8
0
100
AcDbCircle
 10
124.0000000480326
 20
94.50002498404511
 30
0.0
 40
0.2
  0
CIRCLE
  5
7B6D
330
7B19
100
AcDbEntity
  8
0
100
AcDbCircle
 10
131.0000000480326
 20
123.4999999840451
 30
0.0
 40
0.2
  0
LINE
  5
7B6E
330
7B19
100
AcDbEntity
  8
0
100
AcDbLine
 10
141.0000000480326
 20
123.4999999840451
 30
0.0
 11
143.9999999737613
 21
123.4999999840451
 31
0.0
  0
INSERT
  5
7B6F
330
7B19
100
AcDbEntity
  8
0
100
AcDbBlockReference
  2
GROUND
 10
121.0000000480326
 20
120.4999999840451
 30
0.0
  0
LINE
  5
7B70
330
7B19
100
AcDbEntity
  8
0
100
AcDbLine
 10
121.0000000480326
 20
123.4999999840451
 30
0.0
 11
121.0000000480326
 21
120.4999999840451
 31
0.0
  0
INSERT
  5
7B71
330
7B19
100
AcDbEntity
  8
0
100
AcDbBlockReference
  2
A$C245A6C91
 10
141.0000000480326
 20
123.4999999840451
 30
0.0
  0
INSERT
  5
7B72
330
7B19
100
AcDbEntity
  8
0
100
AcDbBlockReference
  2
RESISTOR
 10
121.0000000480326
 20
123.4999999840451
 30
0.0
  0
INSERT
  5
7B73
330
7B19
100
AcDbEntity
  8
0
100
AcDbBlockReference
  2
RESISTOR
 10
131.0000000480326
 20
123.4999999840451
 30
0.0
  0
LINE
  5
7B74
330
7B19
100
AcDbEntity
  8
0
100
AcDbLine
 10
131.0000000480326
 20
104.500024984045
 30
0.0
 11
131.0000000480326
 21
123.4999999840451
 31
0.0
  0
LINE
  5
7B75
330
7B19
100
AcDbEntity
  8
0
100
AcDbLine
 10
124.0000000480326
 20
94.50002498404511
 30
0.0
 11
131.0000000480326
 21
94.49999998404512
 31
0.0
  0
INSERT
  5
7B76
330
7B19
100
AcDbEntity
  8
0
100
AcDbBlockReference
  2
OPERATIONAL_AMPLIFIER
 10
131.0000000480326
 20
94.49999998404512
 30
0.0
  0
INSERT
  5
7B77
330
7B19
100
AcDbEntity
  8
0
100
AcDbBlockReference
  2
GROUND
 10
124.0000000480326
 20
84.50002498404513
 30
0.0
  0
INSERT
  5
7B78
330
7B19
100
AcDbEntity
  8
0
100
AcDbBlockReference
  2
CAPACITOR
 10
124.0000000480326
 20
94.50002498404513
 30
0.0
 50
270.0
  0
INSERT
  5
7B79
330
7B19
100
AcDbEntity
  8
0
100
AcDbBlockReference
  2
GROUND
 10
124.0000000480326
 20
105.4999999840451
 30
0.0
  0
LINE
  5
7B7A
330
7B19
100
AcDbEntity
  8
0
100
AcDbLine
 10
124.0000000480326
 20
109.4999999840451
 30
0.0
 11
124.0000000480326
 21
105.4999999840451
 31
0.0
  0
LINE
  5
7B7B
330
7B19
100
AcDbEntity
  8
0
100
AcDbLine
 10
114.0000000480327
 20
104.5000249840451
 30
0.0
 11
114.0000000480327
 21
109.4999999840451
 31
0.0
  0
CIRCLE
  5
7B7C
330
7B19
100
AcDbEntity
  8
0
100
AcDbCircle
 10
114.0000000480327
 20
94.50002498404511
 30
0.0
 40
0.2
  0
CIRCLE
  5
7B7D
330
7B19
100
AcDbEntity
  8
0
100
AcDbCircle
 10
114.0000000480327
 20
109.4999999840451
 30
0.0
 40
0.2
  0
CIRCLE
  5
7B7E
330
7B19
100
AcDbEntity
  8
0
100
AcDbCircle
 10
100.8000053737267
 20
109.4999999840451
 30
0.0
 40
0.2
  0
LINE
  5
7B7F
330
7B19
100
AcDbEntity
  8
0
100
AcDbLine
 10
114.0000000480327
 20
109.4999999840451
 30
0.0
 11
100.8000053737267
 21
109.4999999840451
 31
0.0
  0
INSERT
  5
7B80
330
7B19
100
AcDbEntity
  8
0
100
AcDbBlockReference
  2
CAPACITOR
 10
114.0000000480327
 20
109.4999999840451
 30
0.0
  0
LWPOLYLINE
  5
7B81
330
7B19
100
AcDbEntity
  8
0
 62
     7
100
AcDbPolyline
 90
       10
 70
     0
 43
0.0
 10
114.0000000480327
 20
94.50002498404511
 10
114.0000000480327
 20
95.75002498404511
 10
113.3750000480326
 20
96.37502498404511
 10
114.6250000480326
 20
97.62502498404511
 10
113.3750000480326
 20
98.87502498404513
 10
114.6250000480326
 20
100.1250249840451
 10
113.3750000480326
 20
101.3750249840451
 10
114.6250000480326
 20
102.6250249840451
 10
114.0000000480327
 20
103.2500249840451
 10
114.0000000480327
 20
104.5000249840451
  0
INSERT
  5
7B82
330
7B19
100
AcDbEntity
  8
0
100
AcDbBlockReference
  2
RESISTOR
 10
114.0000000480327
 20
94.50002498404511
 30
0.0
  0
LINE
  5
7B83
330
7B19
100
AcDbEntity
  8
0
100
AcDbLine
 10
100.8000053737267
 20
98.49999998404513
 30
0.0
 11
100.8000053737267
 21
113.499974768783
 31
0.0
  0
CIRCLE
  5
7B84
330
7B19
100
AcDbEntity
  8
0
100
AcDbCircle
 10
100.8000053737267
 20
114.499974768783
 30
0.0
 40
1.0
  0
INSERT
  5
7B85
330
7B19
100
AcDbEntity
  8
0
100
AcDbBlockReference
  2
GROUND
 10
101.5000250480327
 20
79.49999998404513
 30
0.0
  0
LINE
  5
7B86
330
7B19
100
AcDbEntity
  8
0
100
AcDbLine
 10
101.5000250480327
 20
90.7500249840451
 30
0.0
 11
101.5000250480327
 21
79.49999998404513
 31
0.0
  0
CIRCLE
  5
7B87
330
7B19
100
AcDbEntity
  8
0
100
AcDbCircle
 10
89.00000004803269
 20
114.4999999840451
 30
0.0
 40
0.2
  0
INSERT
  5
7B88
330
7B19
100
AcDbEntity
  8
0
100
AcDbBlockReference
  2
A$C245A6C91
 10
97.00000004803269
 20
125.4999999840451
 30
0.0
  0
LINE
  5
7B89
330
7B19
100
AcDbEntity
  8
0
100
AcDbLine
 10
95.0000000480327
 20
125.4999999840451
 30
0.0
 11
99.99999997376132
 21
125.4999999840451
 31
0.0
  0
INSERT
  5
7B8A
330
7B19
100
AcDbEntity
  8
0
100
AcDbBlockReference
  2
GROUND
 10
66.00000004803269
 20
119.4999999840451
 30
0.0
  0
LINE
  5
7B8B
330
7B19
100
AcDbEntity
  8
0
100
AcDbLine
 10
66.00000004803269
 20
125.4999999840451
 30
0.0
 11
66.00000004803269
 21
119.4999999840451
 31
0.0
  0
LINE
  5
7B8C
330
7B19
100
AcDbEntity
  8
0
100
AcDbLine
 10
70.00000004803268
 20
125.4999999840451
 30
0.0
 11
66.00000004803269
 21
125.4999999840451
 31
0.0
  0
INSERT
  5
7B8D
330
7B19
100
AcDbEntity
  8
0
100
AcDbBlockReference
  2
RESISTOR
 10
70.00000004803268
 20
125.4999999840451
 30
0.0
  0
INSERT
  5
7B8E
330
7B19
100
AcDbEntity
  8
0
100
AcDbBlockReference
  2
RESISTOR
 10
85.00000004803268
 20
125.4999999840451
 30
0.0
  0
INSERT
  5
7B8F
330
7B19
100
AcDbEntity
  8
0
100
AcDbBlockReference
  2
OPERATIONAL_AMPLIFIER
 10
89.00000004803269
 20
89.49999998404512
 30
0.0
  0
CIRCLE
  5
7B90
330
7B19
100
AcDbEntity
  8
0
100
AcDbCircle
 10
51.00000004803269
 20
89.49999998404512
 30
0.0
 40
0.2
  0
CIRCLE
  5
7B91
330
7B19
100
AcDbEntity
  8
0
100
AcDbCircle
 10
41.00000004803269
 20
89.49999998404512
 30
0.0
 40
0.2
  0
CIRCLE
  5
7B92
330
7B19
100
AcDbEntity
  8
0
100
AcDbCircle
 10
26.00000004803269
 20
124.4999999840451
 30
0.0
 40
0.2
  0
CIRCLE
  5
7B93
330
7B19
100
AcDbEntity
  8
0
100
AcDbCircle
 10
51.00000004803269
 20
124.4999999840451
 30
0.0
 40
0.2
  0
CIRCLE
  5
7B94
330
7B19
100
AcDbEntity
  8
0
100
AcDbCircle
 10
51.00000004803269
 20
144.4999749840451
 30
0.0
 40
0.2
  0
CIRCLE
  5
7B95
330
7B19
100
AcDbEntity
  8
0
100
AcDbCircle
 10
51.00000004803269
 20
164.4999999840451
 30
0.0
 40
0.2
  0
CIRCLE
  5
7B96
330
7B19
100
AcDbEntity
  8
0
100
AcDbCircle
 10
21.00000004803268
 20
149.4999999840451
 30
0.0
 40
0.2
  0
INSERT
  5
7B97
330
7B19
100
AcDbEntity
  8
0
100
AcDbBlockReference
  2
GROUND
 10
41.00000004803269
 20
64.49999998404513
 30
0.0
  0
LINE
  5
7B98
330
7B19
100
AcDbEntity
  8
0
100
AcDbLine
 10
41.00000004803269
 20
67.49999998404513
 30
0.0
 11
41.00000004803269
 21
64.49999998404513
 31
0.0
  0
LINE
  5
7B99
330
7B19
100
AcDbEntity
  8
0
100
AcDbLine
 10
12.00000004803269
 20
67.49999998404513
 30
0.0
 11
41.00000004803269
 21
67.49999998404513
 31
0.0
  0
LINE
  5
7B9A
330
7B19
100
AcDbEntity
  8
0
100
AcDbLine
 10
51.00000004803269
 20
98.49999998404511
 30
0.0
 11
51.00000004803269
 21
89.49999998404512
 31
0.0
  0
LINE
  5
7B9B
330
7B19
100
AcDbEntity
  8
0
100
AcDbLine
 10
36.00000004803269
 20
89.49999998404512
 30
0.0
 11
89.00000004803269
 21
89.49999998404512
 31
0.0
  0
LINE
  5
7B9C
330
7B19
100
AcDbEntity
  8
0
100
AcDbLine
 10
22.00000004803269
 20
89.49999998404512
 30
0.0
 11
26.00000004803268
 21
89.49999998404512
 31
0.0
  0
CIRCLE
  5
7B9D
330
7B19
100
AcDbEntity
  8
0
100
AcDbCircle
 10
4.000000048032688
 20
67.49999998404513
 30
0.0
 40
1.0
  0
CIRCLE
  5
7B9E
330
7B19
100
AcDbEntity
  8
0
100
AcDbCircle
 10
4.000000048032688
 20
89.49999998404512
 30
0.0
 40
1.0
  0
INSERT
  5
7B9F
330
7B19
100
AcDbEntity
  8
0
100
AcDbBlockReference
  2
CAPACITOR
 10
12.00000004803269
 20
89.49999998404512
 30
0.0
  0
INSERT
  5
7BA0
330
7B19
100
AcDbEntity
  8
0
100
AcDbBlockReference
  2
RESISTOR
 10
26.00000004803268
 20
89.49999998404512
 30
0.0
  0
INSERT
  5
7BA1
330
7B19
100
AcDbEntity
  8
0
100
AcDbBlockReference
  2
DIODE
 10
41.00000004803269
 20
89.49999998404514
 30
0.0
 50
90.0
  0
LINE
  5
7BA2
330
7B19
100
AcDbEntity
  8
0
100
AcDbLine
 10
36.0000000480327
 20
124.4999999840451
 30
0.0
 11
51.00000004803269
 21
124.4999999840451
 31
0.0
  0
INSERT
  5
7BA3
330
7B19
100
AcDbEntity
  8
0
100
AcDbBlockReference
  2
A$C245A6C91
 10
38.00000004803269
 20
99.49999998404514
 30
0.0
  0
INSERT
  5
7BA4
330
7B19
100
AcDbEntity
  8
0
100
AcDbBlockReference
  2
A$C245A6C91
 10
58.50000004803269
 20
164.4999999840451
 30
0.0
  0
INSERT
  5
7BA5
330
7B19
100
AcDbEntity
  8
0
100
AcDbBlockReference
  2
RESISTOR
 10
51.00000004803269
 20
164.4999999840451
 30
0.0
  0
LINE
  5
7BA6
330
7B19
100
AcDbEntity
  8
0
100
AcDbLine
 10
36.00000004803269
 20
164.4999999840451
 30
0.0
 11
51.00000004803269
 21
164.4999999840451
 31
0.0
  0
INSERT
  5
7BA7
330
7B19
100
AcDbEntity
  8
0
100
AcDbBlockReference
  2
RESISTOR
 10
51.00000004803269
 20
108.4999999840451
 30
0.0
 50
270.0
  0
LINE
  5
7BA8
330
7B19
100
AcDbEntity
  8
0
100
AcDbLine
 10
51.00000004803269
 20
164.4999999840451
 30
0.0
 11
51.00000004803269
 21
108.4999999840451
 31
0.0
  0
INSERT
  5
7BA9
330
7B19
100
AcDbEntity
  8
0
100
AcDbBlockReference
  2
GROUND
 10
26.00000004803269
 20
114.4999999840451
 30
0.0
  0
INSERT
  5
7BAA
330
7B19
100
AcDbEntity
  8
0
100
AcDbBlockReference
  2
RESISTOR
 10
26.00000004803268
 20
164.4999999840451
 30
0.0
  0
LINE
  5
7BAB
330
7B19
100
AcDbEntity
  8
0
100
AcDbLine
 10
21.00000004803268
 20
164.4999999840451
 30
0.0
 11
26.00000004803268
 21
164.4999999840451
 31
0.0
  0
LINE
  5
7BAC
330
7B19
100
AcDbEntity
  8
0
100
AcDbLine
 10
21.00000004803268
 20
149.4999999840451
 30
0.0
 11
21.00000004803268
 21
164.4999999840451
 31
0.0
  0
INSERT
  5
7BAD
330
7B19
100
AcDbEntity
  8
0
100
AcDbBlockReference
  2
RESISTOR
 10
26.00000004803269
 20
124.4999999840451
 30
0.0
  0
LINE
  5
7BAE
330
7B19
100
AcDbEntity
  8
0
100
AcDbLine
 10
26.00000004803268
 20
139.4999749840451
 30
0.0
 11
26.00000004803269
 21
124.4999999840451
 31
0.0
  0
INSERT
  5
7BAF
330
7B19
100
AcDbEntity
  8
0
100
AcDbBlockReference
  2
CAPACITOR
 10
26.00000004803269
 20
124.4999999840451
 30
0.0
 50
270.0
  0
LINE
  5
7BB0
330
7B19
100
AcDbEntity
  8
0
100
AcDbLine
 10
26.00000004803268
 20
149.4999999840451
 30
0.0
 11
9.000000048032688
 21
149.4999999840451
 31
0.0
  0
INSERT
  5
7BB1
330
7B19
100
AcDbEntity
  8
0
100
AcDbBlockReference
  2
OPERATIONAL_AMPLIFIER
 10
26.00000004803268
 20
149.4999999840451
 30
0.0
 41
-1.0
 50
180.0
  0
CIRCLE
  5
7BB2
330
7B19
100
AcDbEntity
  8
0
100
AcDbCircle
 10
9.000000048032688
 20
149.4999999840451
 30
0.0
 40
0.2
  0
POINT
  5
7BB3
330
7B19
100
AcDbEntity
  8
0
100
AcDbPoint
 10
9.000000048032688
 20
149.4999999840451
 30
0.0
  0
LINE
  5
7BB4
330
7B19
100
AcDbEntity
  8
0
100
AcDbLine
 10
9.000000048032688
 20
159.4999999840451
 30
0.0
 11
9.000000048032688
 21
165.4999999840451
 31
0.0
  0
LINE
  5
7BB5
330
7B19
100
AcDbEntity
  8
0
100
AcDbLine
 10
6.000000048032688
 20
166.4999999840451
 30
0.0
 11
12.00000004803269
 21
166.4999999840451
 31
0.0
  0
CIRCLE
  5
7BB6
330
7B19
100
AcDbEntity
  8
0
100
AcDbCircle
 10
9.000000048032688
 20
166.4999999840451
 30
0.0
 40
1.0
  0
LINE
  5
7BB7
330
7B19
100
AcDbEntity
  8
0
100
AcDbLine
 10
9.000000048032681
 20
139.4999999840451
 30
0.0
 11
9.000000048032688
 21
133.4999999840451
 31
0.0
  0
INSERT
  5
7BB8
330
7B19
100
AcDbEntity
  8
0
100
AcDbBlockReference
  2
GROUND
 10
9.000000048032688
 20
133.4999999840451
 30
0.0
  0
INSERT
  5
7BB9
330
7B19
100
AcDbEntity
  8
0
100
AcDbBlockReference
  2
RESISTOR
 10
9.000000048032681
 20
149.4999999840451
 30
0.0
 50
270.0
  0
INSERT
  5
7BBA
330
7B19
100
AcDbEntity
  8
0
100
AcDbBlockReference
  2
RESISTOR
 10
9.000000048032688
 20
159.4999999840451
 30
0.0
 50
270.0
  0
CIRCLE
  5
7BBB
330
7B19
100
AcDbEntity
  8
0
100
AcDbCircle
 10
127.0000000480326
 20
33.49999998404513
 30
0.0
 40
2.0
  0
LINE
  5
7BBC
330
7B19
100
AcDbEntity
  8
0
100
AcDbLine
 10
127.0000000480326
 20
25.49999998404515
 30
0.0
 11
127.0000000480326
 21
31.49999998404513
 31
0.0
  0
LINE
  5
7BBD
330
7B19
100
AcDbEntity
  8
0
100
AcDbLine
 10
114.9999999737613
 20
25.49999998404515
 30
0.0
 11
127.0000000480326
 21
25.49999998404515
 31
0.0
  0
MTEXT
  5
7BBE
330
7B19
100
AcDbEntity
  8
0
100
AcDbMText
 10
114.5000000480326
 20
37.49999998404515
 30
0.0
 40
2.5
 41
11.0
 71
     5
 72
     5
  1
+5V
 73
     1
 44
1.0
  0
CIRCLE
  5
7BBF
330
7B19
100
AcDbEntity
  8
0
100
AcDbCircle
 10
111.0000000480326
 20
25.49999998404515
 30
0.0
 40
0.2
  0
CIRCLE
  5
7BC0
330
7B19
100
AcDbEntity
  8
0
100
AcDbCircle
 10
102.0000001788303
 20
25.49999998404515
 30
0.0
 40
0.2
  0
CIRCLE
  5
7BC1
330
7B19
100
AcDbEntity
  8
0
100
AcDbCircle
 10
102.0000001788303
 20
10.49999998404515
 30
0.0
 40
0.2
  0
CIRCLE
  5
7BC2
330
7B19
100
AcDbEntity
  8
0
100
AcDbCircle
 10
79.50000004803266
 20
10.49999998404515
 30
0.0
 40
0.2
  0
CIRCLE
  5
7BC3
330
7B19
100
AcDbEntity
  8
0
100
AcDbCircle
 10
55.00000004803268
 20
10.49999998404515
 30
0.0
 40
0.2
  0
CIRCLE
  5
7BC4
330
7B19
100
AcDbEntity
  8
0
100
AcDbCircle
 10
46.00000004803269
 20
10.49999998404515
 30
0.0
 40
0.2
  0
CIRCLE
  5
7BC5
330
7B19
100
AcDbEntity
  8
0
100
AcDbCircle
 10
46.00000004803269
 20
25.49999998404515
 30
0.0
 40
0.2
  0
CIRCLE
  5
7BC6
330
7B19
100
AcDbEntity
  8
0
100
AcDbCircle
 10
37.00000004803268
 20
25.49999998404515
 30
0.0
 40
0.2
  0
CIRCLE
  5
7BC7
330
7B19
100
AcDbEntity
  8
0
100
AcDbCircle
 10
37.00000004803268
 20
10.49999998404515
 30
0.0
 40
0.2
  0
CIRCLE
  5
7BC8
330
7B19
100
AcDbEntity
  8
0
100
AcDbCircle
 10
9.000000048032681
 20
10.49999998404515
 30
0.0
 40
0.2
  0
CIRCLE
  5
7BC9
330
7B19
100
AcDbEntity
  8
0
100
AcDbCircle
 10
9.000000048032681
 20
25.49999998404516
 30
0.0
 40
0.2
  0
INSERT
  5
7BCA
330
7B19
100
AcDbEntity
  8
0
100
AcDbBlockReference
  2
GROUND
 10
79.50000004803266
 20
2.499999984045153
 30
0.0
  0
LINE
  5
7BCB
330
7B19
100
AcDbEntity
  8
0
100
AcDbLine
 10
102.0000001788303
 20
15.49999992281075
 30
0.0
 11
102.0000001788303
 21
10.49999998404515
 31
0.0
  0
LINE
  5
7BCC
330
7B19
100
AcDbEntity
  8
0
100
AcDbLine
 10
55.00000004803268
 20
15.49999998404515
 30
0.0
 11
55.00000004803268
 21
10.49999998404515
 31
0.0
  0
LINE
  5
7BCD
330
7B19
100
AcDbEntity
  8
0
100
AcDbLine
 10
37.00000004803268
 20
15.49999998404515
 30
0.0
 11
37.00000004803268
 21
10.49999998404515
 31
0.0
  0
LINE
  5
7BCE
330
7B19
100
AcDbEntity
  8
0
100
AcDbLine
 10
2.000000048032681
 20
10.49999998404515
 30
0.0
 11
102.0000001788303
 21
10.49999998404515
 31
0.0
  0
CIRCLE
  5
7BCF
330
7B19
100
AcDbEntity
  8
0
100
AcDbCircle
 10
1.000000048032681
 20
10.49999998404515
 30
0.0
 40
1.0
  0
INSERT
  5
7BD0
330
7B19
100
AcDbEntity
  8
0
100
AcDbBlockReference
  2
A$C3FD64A94
 10
100.0000000480326
 20
15.49999998404515
 30
0.0
  0
INSERT
  5
7BD1
330
7B19
100
AcDbEntity
  8
0
100
AcDbBlockReference
  2
A$C245A6C91
 10
112.0000000480326
 20
25.49999998404515
 30
0.0
  0
INSERT
  5
7BD2
330
7B19
100
AcDbEntity
  8
0
100
AcDbBlockReference
  2
CAPACITOR
 10
55.00000004803268
 20
15.49999998404515
 30
0.0
 50
90.0
  0
TEXT
  5
7BD3
330
7B19
100
AcDbEntity
  8
1
100
AcDbText
 10
70.72552452355714
 20
24.20601586790077
 30
0.0
 40
3.0
  1
IN
 41
0.75
100
AcDbText
  0
TEXT
  5
7BD4
330
7B19
100
AcDbEntity
  8
1
100
AcDbText
 10
67.00000004803269
 20
26.40070059360075
 30
0.0
 40
3.0
  1
1
 41
0.75
100
AcDbText
  0
TEXT
  5
7BD5
330
7B19
100
AcDbEntity
  8
1
100
AcDbText
 10
87.38968536271796
 20
24.20601586790077
 30
0.0
 40
3.0
  1
OUT
 41
0.75
100
AcDbText
  0
TEXT
  5
7BD6
330
7B19
100
AcDbEntity
  8
1
100
AcDbText
 10
96.0000000480327
 20
26.40070059360075
 30
0.0
 40
3.0
  1
2
 41
0.75
100
AcDbText
  0
TEXT
  5
7BD7
330
7B19
100
AcDbEntity
  8
1
100
AcDbText
 10
76.54720284523548
 20
18.92517513643404
 30
0.0
 40
3.0
  1
GND
 41
0.75
100
AcDbText
  0
TEXT
  5
7BD8
330
7B19
100
AcDbEntity
  8
1
100
AcDbText
 10
77.16783221586488
 20
13.49999998404515
 30
0.0
 40
3.0
  1
3
 41
0.75
100
AcDbText
  0
LINE
  5
7BD9
330
7B19
100
AcDbEntity
  8
1
100
AcDbLine
 10
69.50000004803266
 20
30.49999998404514
 30
0.0
 11
94.50000004803266
 21
30.49999998404514
 31
0.0
  0
LINE
  5
7BDA
330
7B19
100
AcDbEntity
  8
1
100
AcDbLine
 10
94.50000004803266
 20
30.49999998404514
 30
0.0
 11
94.50000004803266
 21
17.99999998404514
 31
0.0
  0
LINE
  5
7BDB
330
7B19
100
AcDbEntity
  8
1
100
AcDbLine
 10
94.50000004803266
 20
17.99999998404514
 30
0.0
 11
69.50000004803266
 21
17.99999998404514
 31
0.0
  0
LINE
  5
7BDC
330
7B19
100
AcDbEntity
  8
1
100
AcDbLine
 10
69.50000004803266
 20
17.99999998404514
 30
0.0
 11
69.50000004803266
 21
30.49999998404514
 31
0.0
  0
LINE
  5
7BDD
330
7B19
100
AcDbEntity
  8
1
100
AcDbLine
 10
94.50000004803266
 20
25.49999998404515
 30
0.0
 11
114.9999999737613
 21
25.49999998404515
 31
0.0
  0
LINE
  5
7BDE
330
7B19
100
AcDbEntity
  8
1
100
AcDbLine
 10
31.00000004803268
 20
25.49999998404515
 30
0.0
 11
69.50000004803266
 21
25.49999998404515
 31
0.0
  0
LINE
  5
7BDF
330
7B19
100
AcDbEntity
  8
1
100
AcDbLine
 10
79.50000004803266
 20
17.99999998404514
 30
0.0
 11
79.50000004803266
 21
2.499999984045153
 31
0.0
  0
INSERT
  5
7BE0
330
7B19
100
AcDbEntity
  8
0
100
AcDbBlockReference
  2
ZENER_DIODE
 10
37.00000004803268
 20
15.49999998404515
 30
0.0
 50
90.0
  0
INSERT
  5
7BE1
330
7B19
100
AcDbEntity
  8
0
100
AcDbBlockReference
  2
DIODE
 10
21.00000004803268
 20
25.49999998404515
 30
0.0
  0
INSERT
  5
7BE2
330
7B19
100
AcDbEntity
  8
0
100
AcDbBlockReference
  2
RESISTOR
 10
11.00000004803268
 20
25.49999998404515
 30
0.0
  0
LINE
  5
7BE3
330
7B19
100
AcDbEntity
  8
0
100
AcDbLine
 10
2.000000048032681
 20
25.49999998404515
 30
0.0
 11
11.00000004803268
 21
25.49999998404515
 31
0.0
  0
CIRCLE
  5
7BE4
330
7B19
100
AcDbEntity
  8
0
100
AcDbCircle
 10
1.000000048032681
 20
25.49999998404515
 30
0.0
 40
1.0
  0
ENDBLK
  5
7BE6
330
7B19
100
AcDbEntity
  8
0
100
AcDbBlockEnd
  0
BLOCK
  5
82EA
330
82E0
100
AcDbEntity
  8
0
100
AcDbBlockBegin
  2
*D80
 70
     1
 10
0.0
 20
0.0
 30
0.0
  3
*D80
  1

  0
LINE
  5
82F6
330
82E0
100
AcDbEntity
  8
0
  6
CENTER2
 62
     5
370
    -2
100
AcDbLine
 10
28.76579464173295
 20
2.050579788420975
 30
0.0
 11
28.76579464173295
 21
-8.907689048920872
 31
0.0
  0
LINE
  5
82F7
330
82E0
100
AcDbEntity
  8
0
  6
CENTER2
 62
     5
370
    -2
100
AcDbLine
 10
63.76579464173295
 20
2.050579788420975
 30
0.0
 11
63.76579464173295
 21
-8.907689048920872
 31
0.0
  0
LINE
  5
82F8
330
82E0
100
AcDbEntity
  8
0
  6
CENTER2
 62
     5
370
    -2
100
AcDbLine
 10
32.26579464173295
 20
-7.907689048920872
 30
0.0
 11
60.26579464173295
 21
-7.907689048920872
 31
0.0
  0
SOLID
  5
82F9
330
82E0
100
AcDbEntity
  8
0
  6
CENTER2
 62
     5
100
AcDbTrace
 10
32.26579464173295
 20
-7.324355715587539
 30
0.0
 11
32.26579464173295
 21
-8.491022382254206
 31
0.0
 12
28.76579464173295
 22
-7.907689048920872
 32
0.0
 13
28.76579464173295
 23
-7.907689048920872
 33
0.0
  0
SOLID
  5
82FA
330
82E0
100
AcDbEntity
  8
0
  6
CENTER2
 62
     5
100
AcDbTrace
 10
60.26579464173295
 20
-7.324355715587539
 30
0.0
 11
60.26579464173295
 21
-8.491022382254206
 31
0.0
 12
63.76579464173295
 22
-7.907689048920872
 32
0.0
 13
63.76579464173295
 23
-7.907689048920872
 33
0.0
  0
MTEXT
  5
82FB
330
82E0
100
AcDbEntity
  8
0
  6
CENTER2
 62
     5
100
AcDbMText
 10
46.26579464173295
 20
-5.457689048920872
 30
0.0
 40
3.5
 41
0.0
 71
     5
 72
     1
  1
\A1;35
 73
     1
 44
1.0
  0
POINT
  5
82FC
330
82E0
100
AcDbEntity
  8
DEFPOINTS
  6
CENTER2
 62
     0
100
AcDbPoint
 10
28.76579464173295
 20
3.050579788420975
 30
0.0
  0
POINT
  5
82FD
330
82E0
100
AcDbEntity
  8
DEFPOINTS
  6
CENTER2
 62
     0
100
AcDbPoint
 10
63.76579464173295
 20
3.050579788420975
 30
0.0
  0
POINT
  5
82FE
330
82E0
100
AcDbEntity
  8
DEFPOINTS
  6
CENTER2
 62
     0
100
AcDbPoint
 10
63.76579464173295
 20
-7.907689048920872
 30
0.0
  0
ENDBLK
  5
82EB
330
82E0
100
AcDbEntity
  8
0
100
AcDbBlockEnd
  0
BLOCK
  5
832A
330
8320
100
AcDbEntity
  8
0
100
AcDbBlockBegin
  2
*D81
 70
     1
 10
0.0
 20
0.0
 30
0.0
  3
*D81
  1

  0
LINE
  5
8335
330
8320
100
AcDbEntity
  8
0
  6
CENTER2
 62
     5
370
    -2
100
AcDbLine
 10
24.76579464173295
 20
-0.673528940613096
 30
0.0
 11
24.76579464173295
 21
-16.89930534468129
 31
0.0
  0
LINE
  5
8336
330
8320
100
AcDbEntity
  8
0
  6
CENTER2
 62
     5
370
    -2
100
AcDbLine
 10
67.76579464173295
 20
-0.673528940613096
 30
0.0
 11
67.76579464173295
 21
-16.89930534468129
 31
0.0
  0
LINE
  5
8337
330
8320
100
AcDbEntity
  8
0
  6
CENTER2
 62
     5
370
    -2
100
AcDbLine
 10
28.26579464173295
 20
-15.89930534468129
 30
0.0
 11
64.26579464173295
 21
-15.89930534468129
 31
0.0
  0
SOLID
  5
8338
330
8320
100
AcDbEntity
  8
0
  6
CENTER2
 62
     5
100
AcDbTrace
 10
28.26579464173295
 20
-15.31597201134796
 30
0.0
 11
28.26579464173295
 21
-16.48263867801462
 31
0.0
 12
24.76579464173295
 22
-15.89930534468129
 32
0.0
 13
24.76579464173295
 23
-15.89930534468129
 33
0.0
  0
SOLID
  5
8339
330
8320
100
AcDbEntity
  8
0
  6
CENTER2
 62
     5
100
AcDbTrace
 10
64.26579464173295
 20
-15.31597201134796
 30
0.0
 11
64.26579464173295
 21
-16.48263867801462
 31
0.0
 12
67.76579464173295
 22
-15.89930534468129
 32
0.0
 13
67.76579464173295
 23
-15.89930534468129
 33
0.0
  0
MTEXT
  5
833A
330
8320
100
AcDbEntity
  8
0
  6
CENTER2
 62
     5
100
AcDbMText
 10
46.26579464173295
 20
-13.44930534468129
 30
0.0
 40
3.5
 41
0.0
 71
     5
 72
     1
  1
\A1;43
 73
     1
 44
1.0
  0
POINT
  5
833B
330
8320
100
AcDbEntity
  8
DEFPOINTS
  6
CENTER2
 62
     0
100
AcDbPoint
 10
24.76579464173295
 20
0.326471059386904
 30
0.0
  0
POINT
  5
833C
330
8320
100
AcDbEntity
  8
DEFPOINTS
  6
CENTER2
 62
     0
100
AcDbPoint
 10
67.76579464173295
 20
0.326471059386904
 30
0.0
  0
POINT
  5
833D
330
8320
100
AcDbEntity
  8
DEFPOINTS
  6
CENTER2
 62
     0
100
AcDbPoint
 10
67.76579464173295
 20
-15.89930534468129
 30
0.0
  0
ENDBLK
  5
832B
330
8320
100
AcDbEntity
  8
0
100
AcDbBlockEnd
  0
BLOCK
  5
8347
330
833F
100
AcDbEntity
  8
0
100
AcDbBlockBegin
  2
*D82
 70
     1
 10
0.0
 20
0.0
 30
0.0
  3
*D82
  1

  0
LINE
  5
835F
330
833F
100
AcDbEntity
  8
0
  6
CENTER2
 62
     5
370
    -2
100
AcDbLine
 10
79.76579464173295
 20
3.050579788420975
 30
0.0
 11
88.27335902660291
 21
3.050579788420972
 31
0.0
  0
LINE
  5
8360
330
833F
100
AcDbEntity
  8
0
  6
CENTER2
 62
     5
370
    -2
100
AcDbLine
 10
82.69207323979731
 20
9.050579788420975
 30
0.0
 11
88.27335902660291
 21
9.050579788420973
 31
0.0
  0
LINE
  5
8361
330
833F
100
AcDbEntity
  8
0
  6
CENTER2
 62
     5
370
    -2
100
AcDbLine
 10
87.27335902660291
 20
12.55057978842097
 30
0.0
 11
87.27335902660291
 21
16.05057978842097
 31
0.0
  0
LINE
  5
8362
330
833F
100
AcDbEntity
  8
0
  6
CENTER2
 62
     5
370
    -2
100
AcDbLine
 10
87.27335902660291
 20
-0.449420211579027
 30
0.0
 11
87.27335902660291
 21
-7.68275354491236
 31
0.0
  0
LINE
  5
8363
330
833F
100
AcDbEntity
  8
0
  6
CENTER2
 62
     5
370
    -2
100
AcDbLine
 10
87.27335902660291
 20
9.050579788420973
 30
0.0
 11
87.27335902660291
 21
3.050579788420972
 31
0.0
  0
SOLID
  5
8364
330
833F
100
AcDbEntity
  8
0
  6
CENTER2
 62
     5
100
AcDbTrace
 10
86.69002569326957
 20
12.55057978842097
 30
0.0
 11
87.85669235993623
 21
12.55057978842097
 31
0.0
 12
87.27335902660291
 22
9.050579788420973
 32
0.0
 13
87.27335902660291
 23
9.050579788420973
 33
0.0
  0
SOLID
  5
8365
330
833F
100
AcDbEntity
  8
0
  6
CENTER2
 62
     5
100
AcDbTrace
 10
86.69002569326957
 20
-0.4494202115790269
 30
0.0
 11
87.85669235993623
 21
-0.4494202115790271
 31
0.0
 12
87.27335902660291
 22
3.050579788420972
 32
0.0
 13
87.27335902660291
 23
3.050579788420972
 33
0.0
  0
MTEXT
  5
8366
330
833F
100
AcDbEntity
  8
0
  6
CENTER2
 62
     5
100
AcDbMText
 10
84.8233590266029
 20
-5.81608687824568
 30
0.0
 40
3.5
 41
0.0
 71
     5
 72
     1
  1
\A1;6
 11
0.0000000000000001
 21
1.0
 31
0.0
 73
     1
 44
1.0
  0
POINT
  5
8367
330
833F
100
AcDbEntity
  8
DEFPOINTS
  6
CENTER2
 62
     0
100
AcDbPoint
 10
78.76579464173295
 20
3.050579788420975
 30
0.0
  0
POINT
  5
8368
330
833F
100
AcDbEntity
  8
DEFPOINTS
  6
CENTER2
 62
     0
100
AcDbPoint
 10
81.69207323979732
 20
9.050579788420975
 30
0.0
  0
POINT
  5
8369
330
833F
100
AcDbEntity
  8
DEFPOINTS
  6
CENTER2
 62
     0
100
AcDbPoint
 10
87.27335902660291
 20
9.050579788420973
 30
0.0
  0
ENDBLK
  5
8348
330
833F
100
AcDbEntity
  8
0
100
AcDbBlockEnd
  0
BLOCK
  5
8375
330
836B
100
AcDbEntity
  8
0
100
AcDbBlockBegin
  2
*D83
 70
     1
 10
0.0
 20
0.0
 30
0.0
  3
*D83
  1

  0
LINE
  5
8380
330
836B
100
AcDbEntity
  8
0
  6
CENTER2
 62
     5
370
    -2
100
AcDbLine
 10
18.76579464173295
 20
31.05057978842097
 30
0.0
 11
18.76579464173295
 21
47.69634107870797
 31
0.0
  0
LINE
  5
8381
330
836B
100
AcDbEntity
  8
0
  6
CENTER2
 62
     5
370
    -2
100
AcDbLine
 10
73.76579464173295
 20
31.05057978842097
 30
0.0
 11
73.76579464173295
 21
47.69634107870797
 31
0.0
  0
LINE
  5
8382
330
836B
100
AcDbEntity
  8
0
  6
CENTER2
 62
     5
370
    -2
100
AcDbLine
 10
22.26579464173295
 20
46.69634107870797
 30
0.0
 11
70.26579464173295
 21
46.69634107870797
 31
0.0
  0
SOLID
  5
8383
330
836B
100
AcDbEntity
  8
0
  6
CENTER2
 62
     5
100
AcDbTrace
 10
22.26579464173295
 20
47.27967441204131
 30
0.0
 11
22.26579464173295
 21
46.11300774537464
 31
0.0
 12
18.76579464173295
 22
46.69634107870797
 32
0.0
 13
18.76579464173295
 23
46.69634107870797
 33
0.0
  0
SOLID
  5
8384
330
836B
100
AcDbEntity
  8
0
  6
CENTER2
 62
     5
100
AcDbTrace
 10
70.26579464173295
 20
47.27967441204131
 30
0.0
 11
70.26579464173295
 21
46.11300774537464
 31
0.0
 12
73.76579464173295
 22
46.69634107870797
 32
0.0
 13
73.76579464173295
 23
46.69634107870797
 33
0.0
  0
MTEXT
  5
8385
330
836B
100
AcDbEntity
  8
0
  6
CENTER2
 62
     5
100
AcDbMText
 10
46.26579464173295
 20
49.14634107870798
 30
0.0
 40
3.5
 41
0.0
 71
     5
 72
     1
  1
\A1;55
 73
     1
 44
1.0
  0
POINT
  5
8386
330
836B
100
AcDbEntity
  8
DEFPOINTS
  6
CENTER2
 62
     0
100
AcDbPoint
 10
18.76579464173295
 20
30.05057978842097
 30
0.0
  0
POINT
  5
8387
330
836B
100
AcDbEntity
  8
DEFPOINTS
  6
CENTER2
 62
     0
100
AcDbPoint
 10
73.76579464173295
 20
30.05057978842097
 30
0.0
  0
POINT
  5
8388
330
836B
100
AcDbEntity
  8
DEFPOINTS
  6
CENTER2
 62
     0
100
AcDbPoint
 10
73.76579464173295
 20
46.69634107870797
 30
0.0
  0
ENDBLK
  5
8376
330
836B
100
AcDbEntity
  8
0
100
AcDbBlockEnd
  0
BLOCK
  5
83A1
330
8397
100
AcDbEntity
  8
0
100
AcDbBlockBegin
  2
*D84
 70
     1
 10
0.0
 20
0.0
 30
0.0
  3
*D84
  1

  0
LINE
  5
857F
330
8397
100
AcDbEntity
  8
0
  6
CENTER2
 62
     5
370
    -2
100
AcDbLine
 10
73.76579464173295
 20
32.05057978842097
 30
0.0
 11
73.76579464173295
 21
47.69634107870797
 31
0.0
  0
LINE
  5
8580
330
8397
100
AcDbEntity
  8
0
  6
CENTER2
 62
     5
370
    -2
100
AcDbLine
 10
148.2657946417329
 20
22.50057978842097
 30
0.0
 11
148.2657946417329
 21
47.69634107870797
 31
0.0
  0
LINE
  5
8581
330
8397
100
AcDbEntity
  8
0
  6
CENTER2
 62
     5
370
    -2
100
AcDbLine
 10
76.26579464173295
 20
46.69634107870797
 30
0.0
 11
145.7657946417329
 21
46.69634107870797
 31
0.0
  0
SOLID
  5
8582
330
8397
100
AcDbEntity
  8
0
  6
CENTER2
 62
     5
100
AcDbTrace
 10
76.26579464173295
 20
47.11300774537463
 30
0.0
 11
76.26579464173295
 21
46.2796744120413
 31
0.0
 12
73.76579464173295
 22
46.69634107870797
 32
0.0
 13
73.76579464173295
 23
46.69634107870797
 33
0.0
  0
SOLID
  5
8583
330
8397
100
AcDbEntity
  8
0
  6
CENTER2
 62
     5
100
AcDbTrace
 10
145.7657946417329
 20
47.11300774537463
 30
0.0
 11
145.7657946417329
 21
46.2796744120413
 31
0.0
 12
148.2657946417329
 22
46.69634107870797
 32
0.0
 13
148.2657946417329
 23
46.69634107870797
 33
0.0
  0
MTEXT
  5
8584
330
8397
100
AcDbEntity
  8
0
  6
CENTER2
 62
     5
100
AcDbMText
 10
111.0157946417329
 20
49.14634107870798
 30
0.0
 40
3.5
 41
0.0
 71
     5
 72
     1
  1
\A1;2000
 73
     1
 44
1.0
  0
POINT
  5
8585
330
8397
100
AcDbEntity
  8
DEFPOINTS
  6
CENTER2
 62
     0
100
AcDbPoint
 10
73.76579464173295
 20
31.05057978842097
 30
0.0
  0
POINT
  5
8586
330
8397
100
AcDbEntity
  8
DEFPOINTS
  6
CENTER2
 62
     0
100
AcDbPoint
 10
148.2657946417329
 20
21.50057978842097
 30
0.0
  0
POINT
  5
8587
330
8397
100
AcDbEntity
  8
DEFPOINTS
  6
CENTER2
 62
     0
100
AcDbPoint
 10
148.2657946417329
 20
46.69634107870797
 30
0.0
  0
ENDBLK
  5
83A2
330
8397
100
AcDbEntity
  8
0
100
AcDbBlockEnd
  0
BLOCK
  5
83DB
330
83D1
100
AcDbEntity
  8
0
100
AcDbBlockBegin
  2
*D85
 70
     1
 10
0.0
 20
0.0
 30
0.0
  3
*D85
  1

  0
LINE
  5
83EF
330
83D1
100
AcDbEntity
  8
0
  6
CENTER2
 62
     5
370
    -2
100
AcDbLine
 10
79.76579464173295
 20
3.050579788420975
 30
0.0
 11
104.6989983046493
 21
3.050579788420967
 31
0.0
  0
LINE
  5
83F0
330
83D1
100
AcDbEntity
  8
0
  6
CENTER2
 62
     5
370
    -2
100
AcDbLine
 10
72.76579464173295
 20
33.05057978842097
 30
0.0
 11
104.6989983046493
 21
33.05057978842096
 31
0.0
  0
LINE
  5
83F1
330
83D1
100
AcDbEntity
  8
0
  6
CENTER2
 62
     5
370
    -2
100
AcDbLine
 10
103.6989983046493
 20
6.550579788420968
 30
0.0
 11
103.6989983046493
 21
29.55057978842097
 31
0.0
  0
SOLID
  5
83F2
330
83D1
100
AcDbEntity
  8
0
  6
CENTER2
 62
     5
100
AcDbTrace
 10
103.1156649713159
 20
6.550579788420968
 30
0.0
 11
104.2823316379826
 21
6.550579788420968
 31
0.0
 12
103.6989983046493
 22
3.050579788420968
 32
0.0
 13
103.6989983046493
 23
3.050579788420968
 33
0.0
  0
SOLID
  5
83F3
330
83D1
100
AcDbEntity
  8
0
  6
CENTER2
 62
     5
100
AcDbTrace
 10
103.1156649713159
 20
29.55057978842097
 30
0.0
 11
104.2823316379826
 21
29.55057978842096
 31
0.0
 12
103.6989983046493
 22
33.05057978842096
 32
0.0
 13
103.6989983046493
 23
33.05057978842096
 33
0.0
  0
MTEXT
  5
83F4
330
83D1
100
AcDbEntity
  8
0
  6
CENTER2
 62
     5
100
AcDbMText
 10
101.2489983046493
 20
11.92958197228057
 30
0.0
 40
3.5
 41
0.0
 71
     5
 72
     1
  1
\A1;30
 11
0.0000000000000001
 21
1.0
 31
0.0
 73
     1
 44
1.0
  0
POINT
  5
83F5
330
83D1
100
AcDbEntity
  8
DEFPOINTS
  6
CENTER2
 62
     0
100
AcDbPoint
 10
78.76579464173295
 20
3.050579788420975
 30
0.0
  0
POINT
  5
83F6
330
83D1
100
AcDbEntity
  8
DEFPOINTS
  6
CENTER2
 62
     0
100
AcDbPoint
 10
71.76579464173295
 20
33.05057978842097
 30
0.0
  0
POINT
  5
83F7
330
83D1
100
AcDbEntity
  8
DEFPOINTS
  6
CENTER2
 62
     0
100
AcDbPoint
 10
103.6989983046493
 20
33.05057978842096
 30
0.0
  0
ENDBLK
  5
83DC
330
83D1
100
AcDbEntity
  8
0
100
AcDbBlockEnd
  0
BLOCK
  5
8403
330
83F9
100
AcDbEntity
  8
0
100
AcDbBlockBegin
  2
*D86
 70
     1
 10
0.0
 20
0.0
 30
0.0
  3
*D86
  1

  0
LINE
  5
840E
330
83F9
100
AcDbEntity
  8
0
  6
CENTER2
 62
     5
370
    -2
100
AcDbLine
 10
74.76579464173295
 20
71.58060481572573
 30
0.0
 11
106.3927020433366
 21
71.58060481572572
 31
0.0
  0
LINE
  5
840F
330
83F9
100
AcDbEntity
  8
0
  6
CENTER2
 62
     5
370
    -2
100
AcDbLine
 10
74.76579464173295
 20
85.18060481572574
 30
0.0
 11
106.3927020433366
 21
85.18060481572572
 31
0.0
  0
LINE
  5
8410
330
83F9
100
AcDbEntity
  8
0
  6
CENTER2
 62
     5
370
    -2
100
AcDbLine
 10
105.3927020433366
 20
75.08060481572572
 30
0.0
 11
105.3927020433366
 21
81.68060481572572
 31
0.0
  0
SOLID
  5
8411
330
83F9
100
AcDbEntity
  8
0
  6
CENTER2
 62
     5
100
AcDbTrace
 10
104.8093687100032
 20
75.08060481572572
 30
0.0
 11
105.9760353766699
 21
75.08060481572572
 31
0.0
 12
105.3927020433366
 22
71.58060481572572
 32
0.0
 13
105.3927020433366
 23
71.58060481572572
 33
0.0
  0
SOLID
  5
8412
330
83F9
100
AcDbEntity
  8
0
  6
CENTER2
 62
     5
100
AcDbTrace
 10
104.8093687100032
 20
81.68060481572572
 30
0.0
 11
105.9760353766699
 21
81.68060481572572
 31
0.0
 12
105.3927020433366
 22
85.18060481572572
 32
0.0
 13
105.3927020433366
 23
85.18060481572572
 33
0.0
  0
MTEXT
  5
8413
330
83F9
100
AcDbEntity
  8
0
  6
CENTER2
 62
     5
100
AcDbMText
 10
102.9427020433365
 20
78.38060481572575
 30
0.0
 40
3.5
 41
0.0
 71
     5
 72
     1
  1
\A1;13.6
 11
0.0000000000000001
 21
1.0
 31
0.0
 73
     1
 44
1.0
  0
POINT
  5
8414
330
83F9
100
AcDbEntity
  8
DEFPOINTS
  6
CENTER2
 62
     0
100
AcDbPoint
 10
73.76579464173295
 20
71.58060481572573
 30
0.0
  0
POINT
  5
8415
330
83F9
100
AcDbEntity
  8
DEFPOINTS
  6
CENTER2
 62
     0
100
AcDbPoint
 10
73.76579464173295
 20
85.18060481572574
 30
0.0
  0
POINT
  5
8416
330
83F9
100
AcDbEntity
  8
DEFPOINTS
  6
CENTER2
 62
     0
100
AcDbPoint
 10
105.3927020433366
 20
85.18060481572572
 30
0.0
  0
ENDBLK
  5
8404
330
83F9
100
AcDbEntity
  8
0
100
AcDbBlockEnd
  0
BLOCK
  5
8436
330
8432
100
AcDbEntity
  8
0
100
AcDbBlockBegin
  2
_ClosedBlank
 70
     0
 10
0.0
 20
0.0
 30
0.0
  3
_ClosedBlank
  1

  0
LINE
  5
8433
330
8432
100
AcDbEntity
  8
0
  6
ByBlock
 62
     0
370
    -2
100
AcDbLine
 10
-1.0
 20
0.1666666666666666
 30
0.0
 11
0.0
 21
0.0
 31
0.0
  0
LINE
  5
8434
330
8432
100
AcDbEntity
  8
0
  6
ByBlock
 62
     0
370
    -2
100
AcDbLine
 10
0.0
 20
0.0
 30
0.0
 11
-1.0
 21
-0.1666666666666666
 31
0.0
  0
LINE
  5
8435
330
8432
100
AcDbEntity
  8
0
  6
ByBlock
 62
     0
370
    -2
100
AcDbLine
 10
-1.0
 20
0.1666666666666666
 30
0.0
 11
-1.0
 21
-0.1666666666666666
 31
0.0
  0
ENDBLK
  5
8437
330
8432
100
AcDbEntity
  8
0
100
AcDbBlockEnd
  0
BLOCK
  5
865C
330
8652
100
AcDbEntity
  8
0
100
AcDbBlockBegin
  2
*D88
 70
     1
 10
0.0
 20
0.0
 30
0.0
  3
*D88
  1

  0
LINE
  5
866E
330
8652
100
AcDbEntity
  8
0
  6
CENTER2
 62
     5
370
    -2
100
AcDbLine
 10
-105.0
 20
25.55057978842097
 30
0.0
 11
-105.0
 21
47.69634107870797
 31
0.0
  0
LINE
  5
866F
330
8652
100
AcDbEntity
  8
0
  6
CENTER2
 62
     5
370
    -2
100
AcDbLine
 10
16.26579464173295
 20
46.69634107870797
 30
0.0
 11
-102.4999999999999
 21
46.69634107870797
 31
0.0
  0
SOLID
  5
8670
330
8652
100
AcDbEntity
  8
0
  6
CENTER2
 62
     5
100
AcDbTrace
 10
16.26579464173295
 20
47.11300774537463
 30
0.0
 11
16.26579464173295
 21
46.2796744120413
 31
0.0
 12
18.76579464173295
 22
46.69634107870797
 32
0.0
 13
18.76579464173295
 23
46.69634107870797
 33
0.0
  0
SOLID
  5
8671
330
8652
100
AcDbEntity
  8
0
  6
CENTER2
 62
     5
100
AcDbTrace
 10
-102.4999999999999
 20
47.11300774537463
 30
0.0
 11
-102.4999999999999
 21
46.2796744120413
 31
0.0
 12
-105.0
 22
46.69634107870797
 32
0.0
 13
-105.0
 23
46.69634107870797
 33
0.0
  0
MTEXT
  5
8672
330
8652
100
AcDbEntity
  8
0
  6
CENTER2
 62
     5
100
AcDbMText
 10
-43.11710267913352
 20
49.14634107870798
 30
0.0
 40
3.5
 41
0.0
 71
     5
 72
     1
  1
\A1;(1000)
 73
     1
 44
1.0
  0
POINT
  5
8673
330
8652
100
AcDbEntity
  8
DEFPOINTS
  6
CENTER2
 62
     0
100
AcDbPoint
 10
18.76579464173295
 20
46.69634107870797
 30
0.0
  0
POINT
  5
8674
330
8652
100
AcDbEntity
  8
DEFPOINTS
  6
CENTER2
 62
     0
100
AcDbPoint
 10
-105.0
 20
24.55057978842097
 30
0.0
  0
POINT
  5
8675
330
8652
100
AcDbEntity
  8
DEFPOINTS
  6
CENTER2
 62
     0
100
AcDbPoint
 10
-105.0
 20
46.69634107870797
 30
0.0
  0
ENDBLK
  5
865D
330
8652
100
AcDbEntity
  8
0
100
AcDbBlockEnd
  0
BLOCK
  5
8681
330
8677
100
AcDbEntity
  8
0
100
AcDbBlockBegin
  2
*D89
 70
     1
 10
0.0
 20
0.0
 30
0.0
  3
*D89
  1

  0
LINE
  5
8678
330
8677
100
AcDbEntity
  8
0
  6
CENTER2
 62
     5
370
    -2
100
AcDbLine
 10
-105.0
 20
25.55057978842097
 30
0.0
 11
-105.0
 21
35.57849617061004
 31
0.0
  0
LINE
  5
8679
330
8677
100
AcDbEntity
  8
0
  6
CENTER2
 62
     5
370
    -2
100
AcDbLine
 10
-82.0
 20
25.550579788421
 30
0.0
 11
-82.0
 21
35.57849617061004
 31
0.0
  0
LINE
  5
867A
330
8677
100
AcDbEntity
  8
0
  6
CENTER2
 62
     5
370
    -2
100
AcDbLine
 10
-102.4999999999999
 20
34.57849617061004
 30
0.0
 11
-84.50000000000001
 21
34.57849617061004
 31
0.0
  0
SOLID
  5
867B
330
8677
100
AcDbEntity
  8
0
  6
CENTER2
 62
     5
100
AcDbTrace
 10
-102.4999999999999
 20
34.9951628372767
 30
0.0
 11
-102.4999999999999
 21
34.16182950394337
 31
0.0
 12
-105.0
 22
34.57849617061004
 32
0.0
 13
-105.0
 23
34.57849617061004
 33
0.0
  0
SOLID
  5
867C
330
8677
100
AcDbEntity
  8
0
  6
CENTER2
 62
     5
100
AcDbTrace
 10
-84.50000000000001
 20
34.9951628372767
 30
0.0
 11
-84.50000000000001
 21
34.16182950394337
 31
0.0
 12
-82.0
 22
34.57849617061004
 32
0.0
 13
-82.0
 23
34.57849617061004
 33
0.0
  0
MTEXT
  5
867D
330
8677
100
AcDbEntity
  8
0
  6
CENTER2
 62
     5
100
AcDbMText
 10
-93.49999999999999
 20
36.52849617061004
 30
0.0
 40
2.5
 41
0.0
 71
     5
 72
     1
  1
\A1;23
 73
     1
 44
1.0
  0
POINT
  5
867E
330
8677
100
AcDbEntity
  8
DEFPOINTS
  6
CENTER2
 62
     0
100
AcDbPoint
 10
-105.0
 20
24.55057978842097
 30
0.0
  0
POINT
  5
867F
330
8677
100
AcDbEntity
  8
DEFPOINTS
  6
CENTER2
 62
     0
100
AcDbPoint
 10
-82.0
 20
24.550579788421
 30
0.0
  0
POINT
  5
8680
330
8677
100
AcDbEntity
  8
DEFPOINTS
  6
CENTER2
 62
     0
100
AcDbPoint
 10
-82.0
 20
34.57849617061004
 30
0.0
  0
ENDBLK
  5
8682
330
8677
100
AcDbEntity
  8
0
100
AcDbBlockEnd
  0
BLOCK
  5
868E
330
8684
100
AcDbEntity
  8
0
100
AcDbBlockBegin
  2
*D90
 70
     1
 10
0.0
 20
0.0
 30
0.0
  3
*D90
  1

  0
LINE
  5
86A2
330
8684
100
AcDbEntity
  8
0
  6
CENTER2
 62
     5
370
    -2
100
AcDbLine
 10
-106.0
 20
24.55057978842097
 30
0.0
 11
-112.3066498251869
 21
24.55057978842097
 31
0.0
  0
LINE
  5
86A3
330
8684
100
AcDbEntity
  8
0
  6
CENTER2
 62
     5
370
    -2
100
AcDbLine
 10
-106.0
 20
14.55057978842097
 30
0.0
 11
-112.3066498251869
 21
14.55057978842097
 31
0.0
  0
LINE
  5
86A4
330
8684
100
AcDbEntity
  8
0
  6
CENTER2
 62
     5
370
    -2
100
AcDbLine
 10
-111.3066498251869
 20
22.05057978842097
 30
0.0
 11
-111.3066498251869
 21
17.05057978842097
 31
0.0
  0
SOLID
  5
86A5
330
8684
100
AcDbEntity
  8
0
  6
CENTER2
 62
     5
100
AcDbTrace
 10
-111.7233164918536
 20
22.05057978842097
 30
0.0
 11
-110.8899831585203
 21
22.05057978842097
 31
0.0
 12
-111.3066498251869
 22
24.55057978842097
 32
0.0
 13
-111.3066498251869
 23
24.55057978842097
 33
0.0
  0
SOLID
  5
86A6
330
8684
100
AcDbEntity
  8
0
  6
CENTER2
 62
     5
100
AcDbTrace
 10
-111.7233164918536
 20
17.05057978842097
 30
0.0
 11
-110.8899831585203
 21
17.05057978842097
 31
0.0
 12
-111.3066498251869
 22
14.55057978842097
 32
0.0
 13
-111.3066498251869
 23
14.55057978842097
 33
0.0
  0
MTEXT
  5
86A7
330
8684
100
AcDbEntity
  8
0
  6
CENTER2
 62
     5
100
AcDbMText
 10
-113.5066498251869
 20
19.55057978842095
 30
0.0
 40
3.0
 41
0.0
 71
     5
 72
     1
  1
\A1;φ10
  7
ADESK1
 11
0.0000000000000001
 21
1.0
 31
0.0
 73
     1
 44
1.0
  0
POINT
  5
86A8
330
8684
100
AcDbEntity
  8
DEFPOINTS
  6
CENTER2
 62
     0
100
AcDbPoint
 10
-105.0
 20
24.55057978842097
 30
0.0
  0
POINT
  5
86A9
330
8684
100
AcDbEntity
  8
DEFPOINTS
  6
CENTER2
 62
     0
100
AcDbPoint
 10
-105.0
 20
14.55057978842097
 30
0.0
  0
POINT
  5
86AA
330
8684
100
AcDbEntity
  8
DEFPOINTS
  6
CENTER2
 62
     0
100
AcDbPoint
 10
-111.3066498251869
 20
14.55057978842097
 30
0.0
  0
ENDBLK
  5
868F
330
8684
100
AcDbEntity
  8
0
100
AcDbBlockEnd
  0
BLOCK
  5
8738
330
872E
100
AcDbEntity
  8
0
100
AcDbBlockBegin
  2
*D91
 70
     1
 10
0.0
 20
0.0
 30
0.0
  3
*D91
  1

  0
LINE
  5
872F
330
872E
100
AcDbEntity
  8
0
  6
ACAD_ISO10W100
 62
     0
370
    -2
100
AcDbLine
 10
322.2806820318388
 20
78.06126473710043
 30
0.0
 11
322.2806820318388
 21
66.75586832176714
 31
0.0
  0
LINE
  5
8730
330
872E
100
AcDbEntity
  8
0
  6
ACAD_ISO10W100
 62
     0
370
    -2
100
AcDbLine
 10
339.2806820318388
 20
78.06126473710043
 30
0.0
 11
339.2806820318388
 21
66.75586832176714
 31
0.0
  0
LINE
  5
8731
330
872E
100
AcDbEntity
  8
0
  6
ACAD_ISO10W100
 62
     0
370
    -2
100
AcDbLine
 10
324.7806820318388
 20
67.75586832176713
 30
0.0
 11
336.7806820318388
 21
67.75586832176713
 31
0.0
  0
SOLID
  5
8732
330
872E
100
AcDbEntity
  8
0
  6
ACAD_ISO10W100
 62
     0
100
AcDbTrace
 10
324.7806820318388
 20
68.17253498843381
 30
0.0
 11
324.7806820318388
 21
67.33920165510046
 31
0.0
 12
322.2806820318388
 22
67.75586832176713
 32
0.0
 13
322.2806820318388
 23
67.75586832176713
 33
0.0
  0
SOLID
  5
8733
330
872E
100
AcDbEntity
  8
0
  6
ACAD_ISO10W100
 62
     0
100
AcDbTrace
 10
336.7806820318388
 20
68.17253498843381
 30
0.0
 11
336.7806820318388
 21
67.33920165510046
 31
0.0
 12
339.2806820318388
 22
67.75586832176713
 32
0.0
 13
339.2806820318388
 23
67.75586832176713
 33
0.0
  0
MTEXT
  5
8734
330
872E
100
AcDbEntity
  8
0
  6
ACAD_ISO10W100
 62
     0
100
AcDbMText
 10
330.7806820318388
 20
69.07405013994895
 30
0.0
 40
2.0
 41
0.0
 71
     5
 72
     1
  1
\A1;検出距離
 73
     1
 44
1.0
  0
POINT
  5
8735
330
872E
100
AcDbEntity
  8
DEFPOINTS
  6
ACAD_ISO10W100
 62
     0
100
AcDbPoint
 10
322.2806820318388
 20
79.06126473710043
 30
0.0
  0
POINT
  5
8736
330
872E
100
AcDbEntity
  8
DEFPOINTS
  6
ACAD_ISO10W100
 62
     0
100
AcDbPoint
 10
339.2806820318388
 20
79.06126473710043
 30
0.0
  0
POINT
  5
8737
330
872E
100
AcDbEntity
  8
DEFPOINTS
  6
ACAD_ISO10W100
 62
     0
100
AcDbPoint
 10
339.2806820318388
 20
67.75586832176713
 30
0.0
  0
ENDBLK
  5
8739
330
872E
100
AcDbEntity
  8
0
100
AcDbBlockEnd
  0
BLOCK
  5
8766
330
873A
100
AcDbEntity
  8
0
100
AcDbBlockBegin
  2
A$C537F4977
 70
     0
 10
0.0
 20
0.0
 30
0.0
  3
A$C537F4977
  1

  0
LINE
  5
873B
330
873A
100
AcDbEntity
  8
0
100
AcDbLine
 10
32.19108053585216
 20
39.96028416775607
 30
0.0
 11
32.19108053585216
 21
50.46028416775605
 31
0.0
  0
LINE
  5
873C
330
873A
100
AcDbEntity
  8
0
100
AcDbLine
 10
35.19108053585216
 20
39.96028416775607
 30
0.0
 11
35.19108053585216
 21
50.46028416775605
 31
0.0
  0
MTEXT
  5
873D
102
{ACAD_REACTORS
330
873E
102
}
330
873A
100
AcDbEntity
  8
0
  6
ACAD_ISO10W100
100
AcDbMText
 10
70.30823739372568
 20
20.54944899743998
 30
0.0
 40
2.0
 41
0.0
 71
     4
 72
     1
  1
\A1;50×50×1㎜\P（SPOC板）
 73
     1
 44
1.0
  0
LEADER
  5
873E
330
873A
100
AcDbEntity
  8
DEFPOINTS
  6
ACAD_ISO10W100
100
AcDbLeader
  3
JIS
 73
     0
 74
     0
 75
     1
 40
5.969696969696969
 41
15.72727272727272
 76
     3
 10
60.69108053585217
 20
30.97825927755485
 30
0.0
 10
67.80823739372568
 20
17.56460051259149
 30
0.0
 10
70.30823739372568
 20
17.56460051259149
 30
0.0
340
873D
1001
ACAD
1000
DSTYLE
1002
{
1070
   172
1070
     0
1070
    77
1070
     2
1002
}
  0
DIMENSION
  5
873F
330
873A
100
AcDbEntity
  8
0
  6
ACAD_ISO10W100
100
AcDbDimension
  2
*D91
 10
59.69108053585216
 20
11.15488775242278
 30
0.0
 11
51.19108053585216
 21
12.47306957060459
 31
0.0
 12
-279.5896014959867
 22
-56.60098056934436
 32
0.0
  1
検出距離
 71
     5
 42
17.0
  3
JIS
100
AcDbAlignedDimension
 13
42.69108053585216
 23
22.46028416775607
 33
0.0
 14
59.69108053585216
 24
22.46028416775607
 34
0.0
100
AcDbRotatedDimension
1001
ACAD
1000
DSTYLE
1002
{
1070
   140
1040
2.0
1070
   172
1070
     0
1002
}
  0
LINE
  5
8740
330
873A
100
AcDbEntity
  8
0
100
AcDbLine
 10
60.69108053585217
 20
7.460284167756071
 30
0.0
 11
60.69108053585217
 21
37.46028416775607
 31
0.0
  0
LINE
  5
8741
330
873A
100
AcDbEntity
  8
0
100
AcDbLine
 10
59.69108053585216
 20
7.460284167756071
 30
0.0
 11
59.69108053585216
 21
37.46028416775607
 31
0.0
  0
LINE
  5
8742
330
873A
100
AcDbEntity
  8
0
100
AcDbLine
 10
30.69108053585216
 20
9.460284167756071
 30
0.0
 11
30.69108053585216
 21
39.96028416775607
 31
0.0
  0
LINE
  5
8743
330
873A
100
AcDbEntity
  8
0
100
AcDbLine
 10
34.69108053585216
 20
9.460284167756071
 30
0.0
 11
34.69108053585216
 21
35.46028416775607
 31
0.0
  0
LINE
  5
8744
330
873A
100
AcDbEntity
  8
0
100
AcDbLine
 10
42.69108053585216
 20
9.460284167756071
 30
0.0
 11
42.69108053585216
 21
35.46028416775607
 31
0.0
  0
MTEXT
  5
8745
330
873A
100
AcDbEntity
  8
0
  6
ACAD_ISO10W100
100
AcDbMText
 10
34.67567060530882
 20
3.799382353323096
 30
0.0
 40
2.5
 41
29.9938
 71
     1
 72
     5
  1
\L検出距離測定方法
 73
     1
 44
1.0
  0
LINE
  5
8746
330
873A
100
AcDbEntity
  8
0
100
AcDbLine
 10
42.69108053585216
 20
9.460284167756071
 30
0.0
 11
30.69108053585216
 21
9.460284167756071
 31
0.0
  0
LINE
  5
8747
330
873A
100
AcDbEntity
  8
0
100
AcDbLine
 10
69.69108053585216
 20
12.46028416775607
 30
0.0
 11
59.69108053585216
 21
12.46028416775607
 31
0.0
  0
LINE
  5
8748
330
873A
100
AcDbEntity
  8
0
100
AcDbLine
 10
60.69108053585217
 20
7.460284167756071
 30
0.0
 11
59.69108053585216
 21
7.460284167756071
 31
0.0
  0
LINE
  5
8749
330
873A
100
AcDbEntity
  8
0
100
AcDbLine
 10
60.69108053585217
 20
7.460284167756071
 30
0.0
 11
59.69108053585216
 21
7.460284167756071
 31
0.0
  0
LINE
  5
874A
330
873A
100
AcDbEntity
  8
0
100
AcDbLine
 10
70.79469819122386
 20
7.460284167756071
 30
0.0
 11
69.86094891171013
 21
5.460284167756071
 31
0.0
  0
LINE
  5
874B
330
873A
100
AcDbEntity
  8
0
100
AcDbLine
 10
68.58746288048047
 20
7.460284167756071
 30
0.0
 11
67.65371360096668
 21
5.460284167756071
 31
0.0
  0
LINE
  5
874C
330
873A
100
AcDbEntity
  8
0
100
AcDbLine
 10
69.69108053585216
 20
7.460284167756071
 30
0.0
 11
68.75733125633843
 21
5.460284167756071
 31
0.0
  0
LINE
  5
874D
330
873A
100
AcDbEntity
  8
0
100
AcDbLine
 10
69.69108053585216
 20
7.460284167756071
 30
0.0
 11
69.69108053585216
 21
12.46028416775607
 31
0.0
  0
LINE
  5
874E
330
873A
100
AcDbEntity
  8
0
100
AcDbLine
 10
71.19108053585216
 20
7.460284167756071
 30
0.0
 11
68.19108053585217
 21
7.460284167756071
 31
0.0
  0
LINE
  5
874F
330
873A
100
AcDbEntity
  8
0
  6
ACAD_ISO10W100
 62
     5
 48
0.05
100
AcDbLine
 10
45.69108053585217
 20
22.46028416775607
 30
0.0
 11
25.69108053585216
 21
22.46028416775607
 31
0.0
  0
LINE
  5
8750
330
873A
100
AcDbEntity
  8
0
100
AcDbLine
 10
42.69108053585216
 20
35.46028416775607
 30
0.0
 11
30.69108053585216
 21
35.46028416775607
 31
0.0
  0
LINE
  5
8751
330
873A
100
AcDbEntity
  8
0
100
AcDbLine
 10
35.69108053585216
 20
36.46028416775607
 30
0.0
 11
30.69108053585216
 21
36.46028416775607
 31
0.0
  0
LINE
  5
8752
330
873A
100
AcDbEntity
  8
0
100
AcDbLine
 10
35.69108053585216
 20
39.46028416775607
 30
0.0
 11
30.69108053585216
 21
39.46028416775607
 31
0.0
  0
LINE
  5
8753
330
873A
100
AcDbEntity
  8
0
100
AcDbLine
 10
35.19108053585216
 20
39.96028416775607
 30
0.0
 11
30.69108053585216
 21
39.96028416775607
 31
0.0
  0
LINE
  5
8754
330
873A
100
AcDbEntity
  8
0
100
AcDbLine
 10
36.69108053585216
 20
35.46028416775607
 30
0.0
 11
35.69108053585216
 21
36.46028416775607
 31
0.0
  0
LINE
  5
8755
330
873A
100
AcDbEntity
  8
0
100
AcDbLine
 10
35.69108053585216
 20
39.46028416775607
 30
0.0
 11
35.19108053585216
 21
39.96028416775607
 31
0.0
  0
LINE
  5
8756
330
873A
100
AcDbEntity
  8
0
100
AcDbLine
 10
35.69108053585216
 20
36.46028416775607
 30
0.0
 11
35.69108053585216
 21
39.46028416775607
 31
0.0
  0
LINE
  5
8757
330
873A
100
AcDbEntity
  8
0
  6
ACAD_ISO10W100
 62
     5
 48
0.05
100
AcDbLine
 10
63.69108053585216
 20
22.46028416775607
 30
0.0
 11
56.69108053585216
 21
22.46028416775607
 31
0.0
  0
LINE
  5
8758
330
873A
100
AcDbEntity
  8
0
100
AcDbLine
 10
60.69108053585217
 20
37.46028416775607
 30
0.0
 11
59.69108053585216
 21
37.46028416775607
 31
0.0
  0
LINE
  5
8759
330
873A
100
AcDbEntity
  8
0
  6
ACAD_ISO10W100
100
AcDbLine
 10
43.92880245485776
 20
66.42826260844874
 30
0.0
 11
22.92618727279534
 21
66.42826260844874
 31
0.0
  0
LINE
  5
875A
330
873A
100
AcDbEntity
  8
0
  6
ACAD_ISO10W100
100
AcDbLine
 10
21.3794829907373
 20
83.26407745414718
 30
0.0
 11
24.4608888131338
 21
83.26407745414718
 31
0.0
  0
LINE
  5
875B
330
873A
100
AcDbEntity
  8
0
  6
ACAD_ISO10W100
100
AcDbLine
 10
22.92618727279534
 20
66.42826260844874
 30
0.0
 11
22.92618727279534
 21
83.26407745414718
 31
0.0
  0
LINE
  5
875C
330
873A
100
AcDbEntity
  8
0
  6
ACAD_ISO10W100
100
AcDbLine
 10
36.19528195077828
 20
79.92944734105179
 30
0.0
 11
36.2359844088711
 21
83.26407745414718
 31
0.0
  0
LINE
  5
875D
330
873A
100
AcDbEntity
  8
0
  6
ACAD_ISO10W100
100
AcDbLine
 10
29.76424826156733
 20
75.70016071828508
 30
0.0
 11
29.76424826156733
 21
83.26407745414718
 31
0.0
  0
ARC
  5
875E
330
873A
100
AcDbEntity
  8
0
100
AcDbCircle
 10
34.44108053585216
 20
50.46028416775607
 30
0.0
 40
0.75
100
AcDbArc
 50
0.0
 51
180.0
  0
CIRCLE
  5
875F
330
873A
100
AcDbEntity
  8
0
100
AcDbCircle
 10
32.94108053585216
 20
50.46028416775607
 30
0.0
 40
0.75
  0
LINE
  5
8760
330
873A
100
AcDbEntity
  8
0
  6
ACAD_ISO10W100
100
AcDbLine
 10
44.09161409965077
 20
79.92944734105179
 30
0.0
 11
36.19528195077828
 21
79.92944734105179
 31
0.0
  0
LINE
  5
8761
330
873A
100
AcDbEntity
  8
0
  6
ACAD_ISO10W100
100
AcDbLine
 10
44.17301901583664
 20
75.70016071828508
 30
0.0
 11
29.76424826156733
 21
75.70016071828508
 31
0.0
  0
LINE
  5
8762
330
873A
100
AcDbEntity
  8
0
  6
ACAD_ISO10W100
100
AcDbLine
 10
27.9608888131338
 20
83.26407745414718
 30
0.0
 11
31.31095254362537
 21
83.26407745414718
 31
0.0
  0
LINE
  5
8763
330
873A
100
AcDbEntity
  8
0
  6
ACAD_ISO10W100
100
AcDbLine
 10
34.81138840730238
 20
83.26407745414718
 30
0.0
 11
37.66058041043982
 21
83.26407745414718
 31
0.0
  0
MTEXT
  5
8764
330
873A
100
AcDbEntity
  8
0
  6
ACAD_ISO10W100
100
AcDbMText
 10
44.52654833572933
 20
82.15351976300178
 30
0.0
 40
2.5
 41
49.7903
 71
     1
 72
     5
  1
製造週間\P製造月度（ただし10，11，12月は\PＸ，Y，Ｚとする。）\P製造年度末尾（西暦）
 73
     1
 44
1.0
  0
MTEXT
  5
8765
330
873A
100
AcDbEntity
  8
0
  6
ACAD_ISO10W100
100
AcDbMText
 10
1.557102385891141
 20
96.00384465556317
 30
0.0
 40
2.5
 41
84.28189887058826
 71
     1
 72
     5
  1
注記\P　　　１．ロット番号は黒色不滅インクにて表記する。\P　　　　　例　　0　　0　　0
 73
     1
 44
1.0
  0
ENDBLK
  5
8767
330
873A
100
AcDbEntity
  8
0
100
AcDbBlockEnd
  0
BLOCK
  5
884F
330
8845
100
AcDbEntity
  8
0
100
AcDbBlockBegin
  2
*D93
 70
     1
 10
0.0
 20
0.0
 30
0.0
  3
*D93
  1

  0
LINE
  5
89AC
330
8845
100
AcDbEntity
  8
0
  6
CENTER2
 62
     0
370
    -2
100
AcDbLine
 10
73.18341991939966
 20
130.6853438627756
 30
0.0
 11
73.18341991939966
 21
134.1891390780637
 31
0.0
  0
LINE
  5
89AD
330
8845
100
AcDbEntity
  8
0
  6
CENTER2
 62
     0
370
    -2
100
AcDbLine
 10
93.57248098230973
 20
130.6853438627756
 30
0.0
 11
93.57248098230973
 21
134.1891390780637
 31
0.0
  0
LINE
  5
89AE
330
8845
100
AcDbEntity
  8
0
  6
CENTER2
 62
     0
370
    -2
100
AcDbLine
 10
75.68341991939966
 20
133.1891390780637
 30
0.0
 11
91.07248098230973
 21
133.1891390780637
 31
0.0
  0
MTEXT
  5
89AF
330
8845
100
AcDbEntity
  8
0
  6
CENTER2
 62
     0
100
AcDbMText
 10
83.46983467135215
 20
129.8488280097409
 30
0.0
 40
2.5
 41
0.0
 71
     5
 72
     1
  1
\A1;検出距離
  7
ADESK1
 73
     1
 44
1.0
  0
SOLID
  5
89B0
330
8845
100
AcDbEntity
  8
0
  6
CENTER2
 62
     0
100
AcDbTrace
 10
75.68341991939966
 20
133.6058057447303
 30
0.0
 11
75.68341991939966
 21
132.772472411397
 31
0.0
 12
73.18341991939966
 22
133.1891390780637
 32
0.0
 13
73.18341991939966
 23
133.1891390780637
 33
0.0
  0
SOLID
  5
89B1
330
8845
100
AcDbEntity
  8
0
  6
CENTER2
 62
     0
100
AcDbTrace
 10
91.07248098230973
 20
133.6058057447303
 30
0.0
 11
91.07248098230973
 21
132.772472411397
 31
0.0
 12
93.57248098230973
 22
133.1891390780637
 32
0.0
 13
93.57248098230973
 23
133.1891390780637
 33
0.0
  0
POINT
  5
89B2
330
8845
100
AcDbEntity
  8
DEFPOINTS
  6
CENTER2
 62
     0
100
AcDbPoint
 10
73.18341991939966
 20
129.6853438627756
 30
0.0
  0
POINT
  5
89B3
330
8845
100
AcDbEntity
  8
DEFPOINTS
  6
CENTER2
 62
     0
100
AcDbPoint
 10
93.57248098230973
 20
129.6853438627756
 30
0.0
  0
POINT
  5
89B4
330
8845
100
AcDbEntity
  8
DEFPOINTS
  6
CENTER2
 62
     0
100
AcDbPoint
 10
93.57248098230973
 20
133.1891390780637
 30
0.0
  0
ENDBLK
  5
8850
330
8845
100
AcDbEntity
  8
0
100
AcDbBlockEnd
  0
ENDSEC
  0
SECTION
  2
ENTITIES
  0
LINE
  5
8235
330
7446
100
AcDbEntity
  8
0
100
AcDbLine
 10
21.76579464173295
 20
33.05057978842097
 30
0.0
 11
71.76579464173295
 21
33.05057978842097
 31
0.0
  0
LINE
  5
8236
330
7446
100
AcDbEntity
  8
0
100
AcDbLine
 10
20.76579464173295
 20
3.050579788420975
 30
0.0
 11
28.76579464173295
 21
3.050579788420975
 31
0.0
  0
LINE
  5
8237
330
7446
100
AcDbEntity
  8
0
100
AcDbLine
 10
18.76579464173295
 20
30.05057978842097
 30
0.0
 11
18.76579464173295
 21
5.050579788420975
 31
0.0
  0
LINE
  5
8238
330
7446
100
AcDbEntity
  8
0
100
AcDbLine
 10
73.76579464173295
 20
31.05057978842097
 30
0.0
 11
73.76579464173295
 21
5.050579788420975
 31
0.0
  0
LINE
  5
8239
330
7446
100
AcDbEntity
  8
0
  6
CENTER2
 48
0.02
370
    20
100
AcDbLine
 10
46.26579464173295
 20
37.37505352050112
 30
0.0
 11
46.26579464173295
 21
3.050579788420975
 31
0.0
  0
LINE
  5
823A
330
7446
100
AcDbEntity
  8
0
100
AcDbLine
 10
28.76579464173295
 20
6.550579788420975
 30
0.0
 11
28.76579464173295
 21
3.050579788420975
 31
0.0
  0
LINE
  5
823B
330
7446
100
AcDbEntity
  8
0
100
AcDbLine
 10
63.76579464173294
 20
6.550579788420975
 30
0.0
 11
63.76579464173295
 21
3.050579788420975
 31
0.0
  0
LINE
  5
823C
330
7446
100
AcDbEntity
  8
0
  6
CENTER2
 48
0.02
370
    20
100
AcDbLine
 10
14.87393049397963
 20
9.050579788420975
 30
0.0
 11
81.69207323979732
 21
9.050579788420975
 31
0.0
  0
LINE
  5
823D
330
7446
100
AcDbEntity
  8
0
  6
CENTER2
 48
0.02
370
    20
100
AcDbLine
 10
24.76579464173295
 20
16.63799417433085
 30
0.0
 11
24.76579464173295
 21
0.326471059386904
 31
0.0
  0
LINE
  5
823E
330
7446
100
AcDbEntity
  8
0
  6
CENTER2
 48
0.02
370
    20
100
AcDbLine
 10
67.76579464173295
 20
15.23369080198438
 30
0.0
 11
67.76579464173295
 21
0.6505409157667828
 31
0.0
  0
CIRCLE
  5
823F
330
7446
100
AcDbEntity
  8
0
100
AcDbCircle
 10
24.76579464173295
 20
9.050579788420975
 30
0.0
 40
1.7
  0
CIRCLE
  5
8240
330
7446
100
AcDbEntity
  8
0
100
AcDbCircle
 10
67.76579464173295
 20
9.050579788420975
 30
0.0
 40
1.7
  0
LINE
  5
8241
330
7446
100
AcDbEntity
  8
0
100
AcDbLine
 10
28.76579464173295
 20
6.550579788420975
 30
0.0
 11
63.76579464173295
 21
6.550579788420975
 31
0.0
  0
LINE
  5
8242
330
7446
100
AcDbEntity
  8
0
100
AcDbLine
 10
63.76579464173295
 20
3.050579788420975
 30
0.0
 11
71.76579464173295
 21
3.050579788420975
 31
0.0
  0
ARC
  5
8249
330
7446
100
AcDbEntity
  8
0
100
AcDbCircle
 10
20.76579464173295
 20
5.050579788420975
 30
0.0
 40
2.0
100
AcDbArc
 50
180.0
 51
270.0
  0
ARC
  5
824B
330
7446
100
AcDbEntity
  8
0
100
AcDbCircle
 10
71.76579464173295
 20
5.050579788420975
 30
0.0
 40
2.0
100
AcDbArc
 50
270.0
 51
0.0
  0
ARC
  5
824C
330
7446
100
AcDbEntity
  8
0
100
AcDbCircle
 10
71.76579464173295
 20
31.05057978842097
 30
0.0
 40
2.0
100
AcDbArc
 50
0.0
 51
90.0
  0
LINE
  5
824D
330
7446
100
AcDbEntity
  8
0
100
AcDbLine
 10
30.76579464173295
 20
5.050579788420973
 30
0.0
 11
30.76579464173295
 21
4.050579788420973
 31
0.0
  0
LINE
  5
824F
330
7446
100
AcDbEntity
  8
0
100
AcDbLine
 10
28.76579464173295
 20
5.050579788420975
 30
0.0
 11
30.76579464173295
 21
5.050579788420973
 31
0.0
  0
LINE
  5
8251
330
7446
100
AcDbEntity
  8
0
100
AcDbLine
 10
30.76579464173295
 20
4.050579788420973
 30
0.0
 11
28.76579464173295
 21
3.050579788420975
 31
0.0
  0
LINE
  5
8259
330
7446
100
AcDbEntity
  8
0
100
AcDbLine
 10
22.76579464173295
 20
31.05057978842097
 30
0.0
 11
70.26579464173295
 21
31.05057978842097
 31
0.0
  0
LINE
  5
825A
330
7446
100
AcDbEntity
  8
0
100
AcDbLine
 10
20.76579464173295
 20
29.05057978842097
 30
0.0
 11
20.76579464173295
 21
26.55057978842097
 31
0.0
  0
LINE
  5
825B
330
7446
100
AcDbEntity
  8
0
100
AcDbLine
 10
18.76579464173295
 20
26.55057978842097
 30
0.0
 11
20.76579464173295
 21
26.55057978842098
 31
0.0
  0
LINE
  5
825C
330
7446
100
AcDbEntity
  8
0
100
AcDbLine
 10
13.76579464173295
 20
27.55057978842097
 30
0.0
 11
13.76579464173295
 21
26.55057978842097
 31
0.0
  0
LINE
  5
825D
330
7446
100
AcDbEntity
  8
0
100
AcDbLine
 10
18.76579464173295
 20
26.55057978842097
 30
0.0
 11
13.76579464173295
 21
26.55057978842097
 31
0.0
  0
LINE
  5
825E
330
7446
100
AcDbEntity
  8
0
100
AcDbLine
 10
18.76579464173295
 20
27.55057978842097
 30
0.0
 11
13.76579464173295
 21
27.55057978842097
 31
0.0
  0
LINE
  5
825F
330
7446
100
AcDbEntity
  8
0
100
AcDbLine
 10
70.26579464173295
 20
33.05057978842097
 30
0.0
 11
70.26579464173295
 21
31.05057978842097
 31
0.0
  0
ARC
  5
8260
330
7446
100
AcDbEntity
  8
0
100
AcDbCircle
 10
21.76579464173295
 20
30.05057978842097
 30
0.0
 40
3.0
100
AcDbArc
 50
90.0
 51
180.0
  0
ARC
  5
8261
330
7446
100
AcDbEntity
  8
0
100
AcDbCircle
 10
22.76579464173295
 20
29.05057978842097
 30
0.0
 40
2.0
100
AcDbArc
 50
90.0
 51
180.0
  0
LINE
  5
8262
330
7446
100
AcDbEntity
  8
0
100
AcDbLine
 10
15.76579464173295
 20
21.55057978842097
 30
0.0
 11
15.76579464173295
 21
17.55057978842097
 31
0.0
  0
LINE
  5
8265
330
7446
100
AcDbEntity
  8
0
100
AcDbLine
 10
17.26579464173294
 20
23.05057978842097
 30
0.0
 11
18.76579464173295
 21
23.05057978842097
 31
0.0
  0
LINE
  5
8266
330
7446
100
AcDbEntity
  8
0
100
AcDbLine
 10
17.26579464173294
 20
16.05057978842097
 30
0.0
 11
18.76579464173295
 21
16.05057978842097
 31
0.0
  0
LINE
  5
8268
330
7446
100
AcDbEntity
  8
0
100
AcDbLine
 10
73.76579464173295
 20
6.550579788420975
 30
0.0
 11
78.76579464173295
 21
6.550579788420975
 31
0.0
  0
LINE
  5
8269
330
7446
100
AcDbEntity
  8
0
100
AcDbLine
 10
78.76579464173295
 20
6.550579788420975
 30
0.0
 11
78.76579464173295
 21
3.050579788420975
 31
0.0
  0
LINE
  5
826A
330
7446
100
AcDbEntity
  8
0
100
AcDbLine
 10
71.76579464173295
 20
3.050579788420975
 30
0.0
 11
78.76579464173295
 21
3.050579788420975
 31
0.0
  0
LINE
  5
826C
330
7446
100
AcDbEntity
  8
0
100
AcDbLine
 10
61.76579464173295
 20
4.050579788420987
 30
0.0
 11
63.76579464173295
 21
3.050579788420988
 31
0.0
  0
LINE
  5
826E
330
7446
100
AcDbEntity
  8
0
100
AcDbLine
 10
63.76579464173295
 20
5.050579788420988
 30
0.0
 11
61.76579464173295
 21
5.050579788420987
 31
0.0
  0
LINE
  5
826F
330
7446
100
AcDbEntity
  8
0
100
AcDbLine
 10
61.76579464173295
 20
5.050579788420987
 30
0.0
 11
61.76579464173295
 21
4.050579788420987
 31
0.0
  0
LINE
  5
8270
330
7446
100
AcDbEntity
  8
0
100
AcDbLine
 10
61.76579464173295
 20
5.050579788420987
 30
0.0
 11
62.64791143622364
 21
6.550579788420975
 31
0.0
  0
LINE
  5
8272
330
7446
100
AcDbEntity
  8
0
100
AcDbLine
 10
76.76579464173295
 20
6.550579788420975
 30
0.0
 11
76.76579464173295
 21
3.050579788420975
 31
0.0
  0
LINE
  5
827A
330
7446
100
AcDbEntity
  8
0
100
AcDbLine
 10
75.76579464173295
 20
16.55057978842097
 30
0.0
 11
80.76579464173295
 21
16.55057978842097
 31
0.0
  0
LINE
  5
827B
330
7446
100
AcDbEntity
  8
0
100
AcDbLine
 10
75.76579464173295
 20
22.55057978842097
 30
0.0
 11
80.76579464173295
 21
22.55057978842097
 31
0.0
  0
LINE
  5
827C
330
7446
100
AcDbEntity
  8
0
100
AcDbLine
 10
75.76579464173295
 20
22.55057978842097
 30
0.0
 11
75.76579464173295
 21
16.55057978842097
 31
0.0
  0
LINE
  5
827D
330
7446
100
AcDbEntity
  8
0
100
AcDbLine
 10
80.76579464173295
 20
22.55057978842097
 30
0.0
 11
80.76579464173295
 21
16.55057978842097
 31
0.0
  0
LINE
  5
827E
330
7446
100
AcDbEntity
  8
0
100
AcDbLine
 10
73.76579464173295
 20
24.55057978842097
 30
0.0
 11
75.76579464173295
 21
22.55057978842097
 31
0.0
  0
LINE
  5
827F
330
7446
100
AcDbEntity
  8
0
100
AcDbLine
 10
75.76579464173295
 20
16.55057978842097
 30
0.0
 11
73.76579464173295
 21
14.55057978842097
 31
0.0
  0
ARC
  5
8280
330
7446
100
AcDbEntity
  8
0
100
AcDbCircle
 10
17.26579464173294
 20
21.55057978842097
 30
0.0
 40
1.5
100
AcDbArc
 50
90.0
 51
180.0
  0
ARC
  5
8281
330
7446
100
AcDbEntity
  8
0
100
AcDbCircle
 10
17.26579464173294
 20
17.55057978842097
 30
0.0
 40
1.5
100
AcDbArc
 50
180.0
 51
270.0
  0
LINE
  5
8282
330
7446
100
AcDbEntity
  8
0
100
AcDbLine
 10
80.76579464173295
 20
21.50057978842097
 30
0.0
 11
93.10402701961875
 21
21.50057978842097
 31
0.0
  0
LINE
  5
8283
330
7446
100
AcDbEntity
  8
0
100
AcDbLine
 10
80.76579464173295
 20
17.60057978842097
 30
0.0
 11
91.92115155422408
 21
17.60057978842097
 31
0.0
  0
LINE
  5
82A3
330
7446
100
AcDbEntity
  8
0
100
AcDbLine
 10
-82.0
 20
18.55057978842097
 30
0.0
 11
-46.51674108799471
 21
18.55057978842097
 31
0.0
  0
LINE
  5
82A4
330
7446
100
AcDbEntity
  8
0
100
AcDbLine
 10
-82.0
 20
20.55057978842097
 30
0.0
 11
-45.79396384790398
 21
20.55057978842097
 31
0.0
  0
LINE
  5
82A5
330
7446
100
AcDbEntity
  8
0
100
AcDbLine
 10
-43.20409915342364
 20
21.83264791792117
 30
0.0
 11
-44.80454662907507
 21
17.30209994872018
 31
0.0
  0
LINE
  5
82A6
330
7446
100
AcDbEntity
  8
0
100
AcDbLine
 10
-45.42139813151165
 20
21.58150797964506
 30
0.0
 11
-47.07059083772847
 21
17.01801977127314
 31
0.0
  0
LINE
  5
82A7
330
7446
100
AcDbEntity
  8
0
100
AcDbLine
 10
-44.36351247130117
 20
18.55057978842097
 30
0.0
 11
15.76579464173294
 21
18.55057978842098
 31
0.0
  0
LINE
  5
82A8
330
7446
100
AcDbEntity
  8
0
100
AcDbLine
 10
-43.65699860740153
 20
20.55057978842097
 30
0.0
 11
15.76579464173295
 21
20.55057978842099
 31
0.0
  0
LINE
  5
82A9
330
7446
100
AcDbEntity
  8
0
100
AcDbLine
 10
110.7657946417329
 20
21.50057978842097
 30
0.0
 11
110.7657946417329
 21
17.60057978842097
 31
0.0
  0
LINE
  5
82AB
330
7446
100
AcDbEntity
  8
0
100
AcDbLine
 10
110.7657946417329
 20
20.20057978842097
 30
0.0
 11
125.7657946417329
 21
20.20057978842097
 31
0.0
  0
LINE
  5
82AC
330
7446
100
AcDbEntity
  8
0
100
AcDbLine
 10
110.7657946417329
 20
18.90057978842097
 30
0.0
 11
125.7657946417329
 21
18.90057978842097
 31
0.0
  0
LINE
  5
82AE
330
7446
100
AcDbEntity
  8
0
100
AcDbLine
 10
125.7657946417329
 20
21.50057978842097
 30
0.0
 11
125.7657946417329
 21
17.60057978842097
 31
0.0
  0
LINE
  5
82AF
330
7446
100
AcDbEntity
  8
0
100
AcDbLine
 10
140.7657946417329
 20
21.50057978842097
 30
0.0
 11
140.7657946417329
 21
17.60057978842097
 31
0.0
  0
LINE
  5
82B0
330
7446
100
AcDbEntity
  8
0
100
AcDbLine
 10
155.7657946417329
 20
21.50057978842097
 30
0.0
 11
155.7657946417329
 21
17.60057978842097
 31
0.0
  0
LINE
  5
82B1
330
7446
100
AcDbEntity
  8
0
100
AcDbLine
 10
125.7657946417329
 20
21.30057978842097
 30
0.0
 11
140.7657946417329
 21
21.30057978842097
 31
0.0
  0
LINE
  5
82B2
330
7446
100
AcDbEntity
  8
0
100
AcDbLine
 10
125.7657946417329
 20
20.40057978842097
 30
0.0
 11
140.7657946417329
 21
20.40057978842097
 31
0.0
  0
LINE
  5
82B3
330
7446
100
AcDbEntity
  8
0
100
AcDbLine
 10
125.7657946417329
 20
20.00057978842097
 30
0.0
 11
140.7657946417329
 21
20.00057978842098
 31
0.0
  0
LINE
  5
82B4
330
7446
100
AcDbEntity
  8
0
100
AcDbLine
 10
125.7657946417329
 20
19.10057978842097
 30
0.0
 11
140.7657946417329
 21
19.10057978842097
 31
0.0
  0
LINE
  5
82B5
330
7446
100
AcDbEntity
  8
0
100
AcDbLine
 10
125.7657946417329
 20
18.70057978842097
 30
0.0
 11
140.7657946417329
 21
18.70057978842097
 31
0.0
  0
LINE
  5
82B6
330
7446
100
AcDbEntity
  8
0
100
AcDbLine
 10
125.7657946417329
 20
17.80057978842097
 30
0.0
 11
140.7657946417329
 21
17.80057978842097
 31
0.0
  0
LINE
  5
82B7
330
7446
100
AcDbEntity
  8
0
100
AcDbLine
 10
140.7657946417329
 20
21.50057978842097
 30
0.0
 11
155.7657946417329
 21
21.50057978842097
 31
0.0
  0
LINE
  5
82B8
330
7446
100
AcDbEntity
  8
0
100
AcDbLine
 10
140.7657946417329
 20
20.20057978842097
 30
0.0
 11
155.7657946417329
 21
20.20057978842097
 31
0.0
  0
LINE
  5
82B9
330
7446
100
AcDbEntity
  8
0
100
AcDbLine
 10
140.7657946417329
 20
18.90057978842097
 30
0.0
 11
155.7657946417329
 21
18.90057978842097
 31
0.0
  0
LINE
  5
82BA
330
7446
100
AcDbEntity
  8
0
100
AcDbLine
 10
140.7657946417329
 20
17.60057978842097
 30
0.0
 11
155.7657946417329
 21
17.60057978842097
 31
0.0
  0
LINE
  5
82BB
330
7446
100
AcDbEntity
  8
0
100
AcDbLine
 10
93.37508063002019
 20
22.39425719698306
 30
0.0
 11
91.62192551540091
 21
16.6140164640891
 31
0.0
  0
LINE
  5
82BC
330
7446
100
AcDbEntity
  8
0
100
AcDbLine
 10
95.47812699280347
 20
22.55216421730074
 30
0.0
 11
93.71378410817872
 21
16.63076614996254
 31
0.0
  0
LINE
  5
82BD
330
7446
100
AcDbEntity
  8
0
100
AcDbLine
 10
95.16479634291689
 20
21.50057978842097
 30
0.0
 11
125.7657946417329
 21
21.50057978842097
 31
0.0
  0
LINE
  5
82BE
330
7446
100
AcDbEntity
  8
0
100
AcDbLine
 10
94.00275029031471
 20
17.60057978842097
 30
0.0
 11
125.7657946417329
 21
17.60057978842097
 31
0.0
  0
LINE
  5
82C1
330
7446
100
AcDbEntity
  8
0
100
AcDbLine
 10
18.76579464173295
 20
71.58060481572573
 30
0.0
 11
73.76579464173295
 21
71.58060481572573
 31
0.0
  0
LINE
  5
82C2
330
7446
100
AcDbEntity
  8
0
100
AcDbLine
 10
18.76579464173295
 20
85.18060481572574
 30
0.0
 11
73.76579464173295
 21
85.18060481572574
 31
0.0
  0
LINE
  5
82C3
330
7446
100
AcDbEntity
  8
0
100
AcDbLine
 10
18.76579464173295
 20
71.58060481572573
 30
0.0
 11
18.76579464173295
 21
85.18060481572574
 31
0.0
  0
LINE
  5
82C4
330
7446
100
AcDbEntity
  8
0
100
AcDbLine
 10
73.76579464173295
 20
71.58060481572573
 30
0.0
 11
73.76579464173295
 21
85.18060481572574
 31
0.0
  0
LINE
  5
82C5
330
7446
100
AcDbEntity
  8
0
100
AcDbLine
 10
70.26579464173295
 20
78.38060481572573
 30
0.0
 11
73.76579464173295
 21
78.38060481572573
 31
0.0
  0
ARC
  5
82C6
330
7446
100
AcDbEntity
  8
0
100
AcDbCircle
 10
17.26579464173295
 20
80.38060481572573
 30
0.0
 40
1.5
100
AcDbArc
 50
90.0
 51
180.0
  0
LINE
  5
82C7
330
7446
100
AcDbEntity
  8
0
100
AcDbLine
 10
1.40228217043176
 20
77.38060481572573
 30
0.0
 11
15.76579464173295
 21
77.38060481572573
 31
0.0
  0
LINE
  5
82C8
330
7446
100
AcDbEntity
  8
0
100
AcDbLine
 10
2.10879603433139
 20
79.38060481572573
 30
0.0
 11
15.76579464173295
 21
79.38060481572573
 31
0.0
  0
LINE
  5
82C9
330
7446
100
AcDbEntity
  8
0
100
AcDbLine
 10
2.561695488309283
 20
80.66267294522594
 30
0.0
 11
0.9612480126578475
 21
76.13212497602494
 31
0.0
  0
LINE
  5
82CB
330
7446
100
AcDbEntity
  8
0
100
AcDbLine
 10
15.76579464173295
 20
80.38060481572573
 30
0.0
 11
15.76579464173295
 21
76.38060481572573
 31
0.0
  0
ARC
  5
82CC
330
7446
100
AcDbEntity
  8
0
100
AcDbCircle
 10
17.26579464173295
 20
76.38060481572573
 30
0.0
 40
1.5
100
AcDbArc
 50
180.0
 51
270.0
  0
LINE
  5
82CD
330
7446
100
AcDbEntity
  8
0
100
AcDbLine
 10
17.26579464173295
 20
74.88060481572573
 30
0.0
 11
18.76579464173295
 21
74.88060481572573
 31
0.0
  0
LINE
  5
82CE
330
7446
100
AcDbEntity
  8
0
100
AcDbLine
 10
17.26579464173295
 20
81.88060481572573
 30
0.0
 11
18.76579464173295
 21
81.88060481572573
 31
0.0
  0
LINE
  5
82CF
330
7446
100
AcDbEntity
  8
0
100
AcDbLine
 10
75.76579464173295
 20
81.38060481572573
 30
0.0
 11
80.76579464173295
 21
81.38060481572573
 31
0.0
  0
LINE
  5
82D0
330
7446
100
AcDbEntity
  8
0
100
AcDbLine
 10
75.76579464173295
 20
75.38060481572573
 30
0.0
 11
80.76579464173295
 21
75.38060481572573
 31
0.0
  0
LINE
  5
82D1
330
7446
100
AcDbEntity
  8
0
100
AcDbLine
 10
73.76579464173295
 20
78.38060481572573
 30
0.0
 11
73.76579464173295
 21
78.38060481572573
 31
0.0
  0
LINE
  5
82D2
330
7446
100
AcDbEntity
  8
0
100
AcDbLine
 10
73.76579464173295
 20
83.38060481572574
 30
0.0
 11
75.76579464173295
 21
81.38060481572573
 31
0.0
  0
LINE
  5
82D3
330
7446
100
AcDbEntity
  8
0
100
AcDbLine
 10
75.76579464173295
 20
75.38060481572573
 30
0.0
 11
73.76579464173295
 21
73.38060481572573
 31
0.0
  0
LINE
  5
82D4
330
7446
100
AcDbEntity
  8
0
100
AcDbLine
 10
75.76579464173295
 20
81.38060481572573
 30
0.0
 11
75.76579464173295
 21
75.38060481572573
 31
0.0
  0
LINE
  5
82D5
330
7446
100
AcDbEntity
  8
0
100
AcDbLine
 10
93.37508063002019
 20
81.22428222428782
 30
0.0
 11
91.62192551540091
 21
75.44404149139386
 31
0.0
  0
LINE
  5
82D6
330
7446
100
AcDbEntity
  8
0
100
AcDbLine
 10
80.76579464173295
 20
76.43060481572573
 30
0.0
 11
91.92115155422408
 21
76.43060481572573
 31
0.0
  0
LINE
  5
82D7
330
7446
100
AcDbEntity
  8
0
100
AcDbLine
 10
80.76579464173295
 20
80.33060481572574
 30
0.0
 11
93.10402701961875
 21
80.33060481572574
 31
0.0
  0
LINE
  5
82D8
330
7446
100
AcDbEntity
  8
0
100
AcDbLine
 10
80.76579464173295
 20
81.38060481572573
 30
0.0
 11
80.76579464173295
 21
75.38060481572573
 31
0.0
  0
LINE
  5
82D9
330
7446
100
AcDbEntity
  8
0
100
AcDbLine
 10
70.26579464173295
 20
71.58060481572573
 30
0.0
 11
70.26579464173295
 21
85.18060481572574
 31
0.0
  0
DIMENSION
  5
82DF
330
7446
100
AcDbEntity
  8
0
  6
CENTER2
100
AcDbDimension
  2
*D80
 10
63.76579464173295
 20
-7.907689048920872
 30
0.0
 11
46.26579464173295
 21
-5.457689048920872
 31
0.0
 70
    32
 71
     5
 42
35.0
  3
JIS
100
AcDbAlignedDimension
 13
28.76579464173295
 23
3.050579788420975
 33
0.0
 14
63.76579464173295
 24
3.050579788420975
 34
0.0
100
AcDbRotatedDimension
1001
ACAD
1000
DSTYLE
1002
{
1070
   140
1040
3.5
1070
    41
1040
3.5
1002
}
  0
DIMENSION
  5
831F
330
7446
100
AcDbEntity
  8
0
  6
CENTER2
100
AcDbDimension
  2
*D81
 10
67.76579464173295
 20
-15.89930534468129
 30
0.0
 11
46.26579464173295
 21
-13.44930534468129
 31
0.0
 70
    32
 71
     5
 42
43.0
  3
JIS
100
AcDbAlignedDimension
 13
24.76579464173295
 23
0.326471059386904
 33
0.0
 14
67.76579464173295
 24
0.326471059386904
 34
0.0
100
AcDbRotatedDimension
1001
ACAD
1000
DSTYLE
1002
{
1070
   140
1040
3.5
1070
    41
1040
3.5
1002
}
  0
DIMENSION
  5
833E
330
7446
100
AcDbEntity
  8
0
  6
CENTER2
100
AcDbDimension
  2
*D82
 10
87.27335902660291
 20
9.050579788420973
 30
0.0
 11
87.27335902660291
 21
-5.81608687824568
 31
0.0
 70
   160
 71
     5
 42
6.0
  3
JIS
100
AcDbAlignedDimension
 13
78.76579464173295
 23
3.050579788420975
 33
0.0
 14
81.69207323979732
 24
9.050579788420975
 34
0.0
 50
90.0
100
AcDbRotatedDimension
1001
ACAD
1000
DSTYLE
1002
{
1070
   140
1040
3.5
1070
    41
1040
3.5
1002
}
  0
DIMENSION
  5
836A
330
7446
100
AcDbEntity
  8
0
  6
CENTER2
100
AcDbDimension
  2
*D83
 10
73.76579464173295
 20
46.69634107870797
 30
0.0
 11
46.26579464173295
 21
49.14634107870798
 31
0.0
 70
    32
 71
     5
 42
55.0
  3
JIS
100
AcDbAlignedDimension
 13
18.76579464173295
 23
30.05057978842097
 33
0.0
 14
73.76579464173295
 24
30.05057978842097
 34
0.0
100
AcDbRotatedDimension
1001
ACAD
1000
DSTYLE
1002
{
1070
   140
1040
3.5
1070
    41
1040
3.5
1002
}
  0
DIMENSION
  5
8396
330
7446
100
AcDbEntity
  8
0
  6
CENTER2
100
AcDbDimension
  2
*D84
 10
148.2657946417329
 20
46.69634107870797
 30
0.0
 11
111.0157946417329
 21
49.14634107870798
 31
0.0
 70
    32
  1
2000
 71
     5
 42
74.5
  3
JIS
100
AcDbAlignedDimension
 13
73.76579464173295
 23
31.05057978842097
 33
0.0
 14
148.2657946417329
 24
21.50057978842097
 34
0.0
100
AcDbRotatedDimension
1001
ACAD
1000
DSTYLE
1002
{
1070
   140
1040
3.5
1002
}
  0
DIMENSION
  5
83D0
330
7446
100
AcDbEntity
  8
0
  6
CENTER2
100
AcDbDimension
  2
*D85
 10
103.6989983046493
 20
33.05057978842096
 30
0.0
 11
103.6989983046493
 21
11.92958197228057
 31
0.0
 70
   160
 71
     5
 42
30.0
  3
JIS
100
AcDbAlignedDimension
 13
78.76579464173295
 23
3.050579788420975
 33
0.0
 14
71.76579464173295
 24
33.05057978842097
 34
0.0
 50
90.0
100
AcDbRotatedDimension
1001
ACAD
1000
DSTYLE
1002
{
1070
   140
1040
3.5
1070
    41
1040
3.5
1002
}
  0
DIMENSION
  5
83F8
330
7446
100
AcDbEntity
  8
0
  6
CENTER2
100
AcDbDimension
  2
*D86
 10
105.3927020433366
 20
85.18060481572572
 30
0.0
 11
102.9427020433365
 21
78.38060481572575
 31
0.0
 70
    32
 71
     5
 42
13.59999999999999
  3
JIS
100
AcDbAlignedDimension
 13
73.76579464173295
 23
71.58060481572573
 33
0.0
 14
73.76579464173295
 24
85.18060481572574
 34
0.0
 50
90.0
100
AcDbRotatedDimension
1001
ACAD
1000
DSTYLE
1002
{
1070
   140
1040
3.5
1070
    41
1040
3.5
1002
}
  0
LEADER
  5
8494
330
7446
100
AcDbEntity
  8
0
  6
CENTER2
100
AcDbLeader
  3
JIS
 73
     0
 74
     0
 75
     1
 40
4.892045454545454
 41
4.792613636363636
 76
     3
 10
-66.75837054399735
 20
18.55057978842097
 30
0.0
 10
-65.06109815173468
 20
6.781187946281193
 30
0.0
 10
-61.56109815173469
 20
6.781187946281193
 30
0.0
340
8495
213
0.0
223
-1.25
233
0.0
1001
ACAD
1000
DSTYLE
1002
{
1070
    41
1040
3.5
1070
   147
1040
0.7
1070
    77
1070
     0
1002
}
  0
MTEXT
  5
8495
102
{ACAD_REACTORS
330
8494
102
}
330
7446
100
AcDbEntity
  8
0
  6
CENTER2
 62
     5
100
AcDbMText
 10
-60.86109815173468
 20
8.031187946281193
 30
0.0
 40
3.5
 41
0.0
 71
     1
 72
     1
  1
{\fMS UI Gothic|b0|i0|c128|p50;\U+2460}
 73
     1
 44
1.0
  0
LEADER
  5
8496
330
7446
100
AcDbEntity
  8
0
  6
CENTER2
100
AcDbLeader
  3
JIS
 73
     0
 75
     1
 40
4.892045454545454
 41
4.017045454545455
 76
     3
 10
20.76579464173295
 20
3.050579788420975
 30
0.0
 10
15.92586096038689
 20
-6.786106734253849
 30
0.0
 10
12.4258609603869
 20
-6.786106734253849
 30
0.0
340
8497
213
0.0
223
1.25
233
0.0
1001
ACAD
1000
DSTYLE
1002
{
1070
    41
1040
3.5
1070
   147
1040
0.7
1070
    77
1070
     0
1002
}
  0
MTEXT
  5
8497
102
{ACAD_REACTORS
330
8496
102
}
330
7446
100
AcDbEntity
  8
0
  6
CENTER2
 62
     5
100
AcDbMText
 10
11.7258609603869
 20
-8.036106734253849
 30
0.0
 40
3.5
 41
0.0
 71
     9
 72
     1
  1
{\fMS UI Gothic|b0|i0|c128|p50;\U+2461}
 73
     1
 44
1.0
  0
LEADER
  5
8498
330
7446
100
AcDbEntity
  8
0
  6
CENTER2
100
AcDbLeader
  3
JIS
 73
     0
 74
     0
 75
     1
 40
4.892045454545454
 41
4.713068181818181
 76
     3
 10
107.4632132230529
 20
17.60057978842097
 30
0.0
 10
112.0994773405177
 20
5.641734748725184
 30
0.0
 10
115.5994773405177
 20
5.641734748725184
 30
0.0
340
8499
213
0.0
223
-1.25
233
0.0
1001
ACAD
1000
DSTYLE
1002
{
1070
    41
1040
3.5
1070
   147
1040
0.7
1070
    77
1070
     0
1002
}
  0
MTEXT
  5
8499
102
{ACAD_REACTORS
330
8498
102
}
330
7446
100
AcDbEntity
  8
0
  6
CENTER2
 62
     5
100
AcDbMText
 10
116.2994773405177
 20
6.891734748725184
 30
0.0
 40
3.5
 41
0.0
 71
     1
 72
     1
  1
{\fMS UI Gothic|b0|i0|c128|p50;\U+2462}
 73
     1
 44
1.0
  0
LEADER
  5
84FF
330
7446
100
AcDbEntity
  8
0
  6
CENTER2
100
AcDbLeader
  3
JIS
 73
     0
 75
     1
 40
4.732954545454545
 41
28.67613636363636
 76
     3
 10
23.06579464173295
 20
9.050579788420975
 30
0.0
 10
0.1043708397571663
 20
-6.083475523808829
 30
0.0
 10
-3.395629160242833
 20
-6.083475523808829
 30
0.0
340
8500
213
0.0
223
1.25
233
0.0
1001
ACAD
1000
DSTYLE
1002
{
1070
    41
1040
3.5
1070
   147
1040
0.7
1070
    77
1070
     0
1002
}
  0
MTEXT
  5
8500
102
{ACAD_REACTORS
330
84FF
102
}
330
7446
100
AcDbEntity
  8
0
  6
CENTER2
 62
     5
100
AcDbMText
 10
-4.095629160242833
 20
-7.333475523808829
 30
0.0
 40
3.5
 41
0.0
 71
     9
 72
     1
  1
{\fMS UI Gothic|b0|i0|c128|p50;２－φ３．４穴}
 73
     1
 44
1.0
  0
LINE
  5
8639
330
7446
100
AcDbEntity
  8
0
  6
CENTER2
100
AcDbLine
 10
-82.0
 20
24.55057978842097
 30
0.0
 11
-81.99999999999999
 21
14.55057978842097
 31
0.0
  0
LINE
  5
863A
330
7446
100
AcDbEntity
  8
0
  6
CENTER2
100
AcDbLine
 10
-101.0
 20
24.55057978842097
 30
0.0
 11
-101.0
 21
14.55057978842097
 31
0.0
  0
LINE
  5
863C
330
7446
100
AcDbEntity
  8
0
  6
CENTER2
100
AcDbLine
 10
-105.0
 20
24.55057978842097
 30
0.0
 11
-105.0
 21
14.55057978842097
 31
0.0
  0
LINE
  5
864F
330
7446
100
AcDbEntity
  8
0
  6
CENTER2
100
AcDbLine
 10
-82.0
 20
24.55057978842097
 30
0.0
 11
-105.0
 21
24.55057978842097
 31
0.0
  0
LINE
  5
8650
330
7446
100
AcDbEntity
  8
0
  6
CENTER2
100
AcDbLine
 10
-82.0
 20
14.55057978842097
 30
0.0
 11
-105.0
 21
14.55057978842097
 31
0.0
  0
DIMENSION
  5
8651
330
7446
100
AcDbEntity
  8
0
  6
CENTER2
100
AcDbDimension
  2
*D88
 10
-105.0
 20
46.69634107870797
 30
0.0
 11
-43.11710267913352
 21
49.14634107870798
 31
0.0
 70
    32
  1
(1000)
 71
     5
 42
123.7657946417329
  3
JIS
100
AcDbAlignedDimension
 13
18.76579464173295
 23
46.69634107870797
 33
0.0
 14
-105.0
 24
24.55057978842097
 34
0.0
100
AcDbRotatedDimension
1001
ACAD
1000
DSTYLE
1002
{
1070
   140
1040
3.5
1002
}
  0
DIMENSION
  5
8676
330
7446
100
AcDbEntity
  8
0
  6
CENTER2
100
AcDbDimension
  2
*D89
 10
-82.0
 20
34.57849617061004
 30
0.0
 11
-93.49999999999999
 21
36.52849617061004
 31
0.0
 70
    32
 71
     5
 42
23.0
  3
JIS
100
AcDbAlignedDimension
 13
-105.0
 23
24.55057978842097
 33
0.0
 14
-82.0
 24
24.550579788421
 34
0.0
100
AcDbRotatedDimension
  0
DIMENSION
  5
8683
330
7446
100
AcDbEntity
  8
0
  6
CENTER2
100
AcDbDimension
  2
*D90
 10
-111.3066498251869
 20
14.55057978842097
 30
0.0
 11
-113.5066498251869
 21
19.55057978842095
 31
0.0
 70
    32
  1
φ10
 71
     5
 42
10.0
  3
JIS
100
AcDbAlignedDimension
 13
-105.0
 23
24.55057978842097
 33
0.0
 14
-105.0
 24
14.55057978842097
 34
0.0
 50
90.0
100
AcDbRotatedDimension
1001
ACAD
1000
DSTYLE
1002
{
1070
   340
1005
744A
1070
   140
1040
3.0
1002
}
  0
MTEXT
  5
86AB
102
{ACAD_REACTORS
330
86AC
102
}
330
7446
100
AcDbEntity
  8
0
  6
CENTER2
 62
     5
100
AcDbMText
 10
-87.60272760773732
 20
4.031187946281193
 30
0.0
 40
3.5
 41
0.0
 71
     1
 72
     1
  1
{\fMS UI Gothic|b0|i0|c128|p50;\U+2463}
 73
     1
 44
1.0
  0
LEADER
  5
86AC
330
7446
100
AcDbEntity
  8
0
  6
CENTER2
100
AcDbLeader
  3
JIS
 73
     0
 74
     0
 75
     1
 40
4.892045454545454
 41
4.713068181818181
 76
     3
 10
-93.49999999999999
 20
14.55057978842097
 30
0.0
 10
-91.80272760773732
 20
2.781187946281193
 30
0.0
 10
-88.30272760773732
 20
2.781187946281193
 30
0.0
340
86AB
213
0.0
223
-1.25
233
0.0
1001
ACAD
1000
DSTYLE
1002
{
1070
    41
1040
3.5
1070
   147
1040
0.7
1070
    77
1070
     0
1002
}
  0
MTEXT
  5
86AD
102
{ACAD_REACTORS
330
86AE
102
}
330
7446
100
AcDbEntity
  8
0
  6
CENTER2
 62
     5
100
AcDbMText
 10
-99.10272760773732
 20
4.031187946281193
 30
0.0
 40
3.5
 41
0.0
 71
     1
 72
     1
  1
{\fMS UI Gothic|b0|i0|c128|p50;\U+2464}
 73
     1
 44
1.0
  0
LEADER
  5
86AE
330
7446
100
AcDbEntity
  8
0
  6
CENTER2
100
AcDbLeader
  3
JIS
 73
     0
 74
     0
 75
     1
 40
4.892045454545454
 41
4.8125
 76
     3
 10
-105.0
 20
14.55057978842097
 30
0.0
 10
-103.3027276077373
 20
2.781187946281193
 30
0.0
 10
-99.80272760773733
 20
2.781187946281193
 30
0.0
340
86AD
213
0.0
223
-1.25
233
0.0
1001
ACAD
1000
DSTYLE
1002
{
1070
    41
1040
3.5
1070
   147
1040
0.7
1070
    77
1070
     0
1002
}
  0
VIEWPORT
  5
74F9
330
7443
100
AcDbEntity
 67
     1
  8
0
100
AcDbViewport
 10
157.5853895674151
 20
105.0036367179184
 30
0.0
 40
481.8296064682821
 41
229.1275553505822
 68
     1
 69
     1
 12
157.5853895674151
 22
105.0036367179184
 13
0.0
 23
0.0
 14
10.0
 24
10.0
 15
10.0
 25
10.0
 16
0.0
 26
0.0
 36
1.0
 17
0.0
 27
0.0
 37
0.0
 42
50.0
 43
0.0
 44
0.0
 45
229.1275553505822
 50
0.0
 51
0.0
 72
   100
 90
    32800
  1

281
     0
 71
     1
 74
     0
110
0.0
120
0.0
130
0.0
111
1.0
121
0.0
131
0.0
112
0.0
122
1.0
132
0.0
 79
     0
146
0.0
  0
VIEWPORT
  5
7500
330
7443
100
AcDbEntity
 67
     1
  8
0
370
   100
100
AcDbViewport
 10
156.0
 20
105.0
 30
0.0
 40
262.0
 41
190.0
 68
     2
 69
     2
 12
20.74729301429631
 22
49.52942273749618
 13
0.0
 23
0.0
 14
1.0
 24
1.0
 15
1.0
 25
1.0
 16
0.0
 26
0.0
 36
1.0
 17
0.0
 27
0.0
 37
0.0
 42
50.0
 43
0.0
 44
0.0
 45
201.1778445776136
 50
0.0
 51
0.0
 72
   100
 90
    32800
  1

281
     0
 71
     1
 74
     0
110
0.0
120
0.0
130
0.0
111
1.0
121
0.0
131
0.0
112
0.0
122
1.0
132
0.0
 79
     0
146
0.0
  0
MTEXT
  5
75C6
330
7443
100
AcDbEntity
 67
     1
  8
0
100
AcDbMText
 10
229.6195854009945
 20
44.4398511696229
 30
0.0
 40
3.5
 41
57.38040590791645
 71
     1
 72
     5
  1
TA100-0054-00 2/3
 73
     1
 44
1.0
  0
LINE
  5
75C8
330
7443
100
AcDbEntity
 67
     1
  8
0
 62
     0
100
AcDbLine
 10
287.0
 20
10.0
 30
0.0
 11
287.0
 21
49.00000000000036
 31
0.0
  0
LINE
  5
75C9
330
7443
100
AcDbEntity
 67
     1
  8
0
 62
     0
100
AcDbLine
 10
287.0
 20
49.00000000000036
 30
0.0
 11
287.0
 21
10.0
 31
0.0
  0
LINE
  5
75CE
330
7443
100
AcDbEntity
 67
     1
  8
0
 62
     0
100
AcDbLine
 10
180.7517730496447
 20
32.01390223014468
 30
0.0
 11
225.7517730496447
 21
31.99999976138464
 31
0.0
  0
TEXT
  5
75D5
330
7443
100
AcDbEntity
 67
     1
  8
0
 62
     0
100
AcDbText
 10
214.155590823972
 20
28.13375265465111
 30
0.0
 40
2.5
  1
照  査
  7
ADESK1
 72
     1
 11
218.3222574906387
 21
28.13375265465111
 31
0.0
100
AcDbText
  0
TEXT
  5
75D6
330
7443
100
AcDbEntity
 67
     1
  8
0
 62
     0
100
AcDbText
 10
199.4595145345794
 20
28.58998376279567
 30
0.0
 40
2.5
  1
設  計
  7
ADESK1
 72
     1
 11
203.6261812012461
 21
28.58998376279567
 31
0.0
100
AcDbText
  0
TEXT
  5
75D7
330
7443
100
AcDbEntity
 67
     1
  8
0
 62
     0
100
AcDbText
 10
184.5828334773846
 20
28.50292565804972
 30
0.0
 40
2.5
  1
製  図
  7
ADESK1
 72
     1
 11
188.666166810718
 21
28.50292565804972
 31
0.0
100
AcDbText
  0
LINE
  5
75DC
330
7443
100
AcDbEntity
 67
     1
  8
0
 62
     0
100
AcDbLine
 10
225.7517730496447
 20
49.00000000000036
 30
0.0
 11
225.7517730496447
 21
10.0
 31
0.0
  0
LINE
  5
75E2
330
7443
100
AcDbEntity
 67
     1
  8
0
 62
     0
100
AcDbLine
 10
287.0
 20
49.00000000000036
 30
0.0
 11
225.7517730496447
 21
49.00000000000035
 31
0.0
  0
LINE
  5
75E3
330
7443
100
AcDbEntity
 67
     1
  8
0
 62
     0
100
AcDbLine
 10
157.2978723404242
 20
10.0
 30
0.0
 11
287.0
 21
10.0
 31
0.0
  0
LINE
  5
75E4
330
7443
100
AcDbEntity
 67
     1
  8
0
 62
     0
100
AcDbLine
 10
225.7517730496447
 20
22.00000000000012
 30
0.0
 11
287.0
 21
22.00000000000012
 31
0.0
  0
LINE
  5
75E5
330
7443
100
AcDbEntity
 67
     1
  8
0
 62
     0
100
AcDbLine
 10
225.7517730496447
 20
37.00000000000024
 30
0.0
 11
287.0
 21
37.00000000000024
 31
0.0
  0
LINE
  5
75E7
330
7443
100
AcDbEntity
 67
     1
  8
0
 62
     0
100
AcDbLine
 10
225.7517730496447
 20
49.00000000000035
 30
0.0
 11
287.0
 21
49.00000000000036
 31
0.0
  0
TEXT
  5
75E8
330
7443
100
AcDbEntity
 67
     1
  8
0
100
AcDbText
 10
287.6673438822666
 20
33.75
 30
0.0
 40
3.0
  1
D
  7
ADESK1
 72
     1
 11
289.2387724536952
 21
33.75
 31
0.0
100
AcDbText
  0
TEXT
  5
75E9
330
7443
100
AcDbEntity
 67
     1
  8
0
100
AcDbText
 10
287.7387724536952
 20
81.25
 30
0.0
 40
3.0
  1
C
  7
ADESK1
 72
     1
 11
289.2387724536952
 21
81.25
 31
0.0
100
AcDbText
  0
TEXT
  5
75EA
330
7443
100
AcDbEntity
 67
     1
  8
0
100
AcDbText
 10
287.6673438822666
 20
128.75
 30
0.0
 40
3.0
  1
B
  7
ADESK1
 72
     1
 11
289.2387724536952
 21
128.75
 31
0.0
100
AcDbText
  0
TEXT
  5
75EB
330
7443
100
AcDbEntity
 67
     1
  8
0
100
AcDbText
 10
287.9530581679809
 20
176.25
 30
0.0
 40
3.0
  1
A
  7
ADESK1
 72
     1
 11
289.2387724536952
 21
176.25
 31
0.0
100
AcDbText
  0
TEXT
  5
75EC
330
7443
100
AcDbEntity
 67
     1
  8
0
100
AcDbText
 10
263.6666666666666
 20
6.230338100985607
 30
0.0
 40
3.0
  1
6
  7
ADESK1
 72
     1
 11
265.1666666666666
 21
6.230338100985607
 31
0.0
100
AcDbText
  0
TEXT
  5
75ED
330
7443
100
AcDbEntity
 67
     1
  8
0
100
AcDbText
 10
220.0714285714286
 20
6.230338100985607
 30
0.0
 40
3.0
  1
5
  7
ADESK1
 72
     1
 11
221.4999999999999
 21
6.230338100985607
 31
0.0
100
AcDbText
  0
TEXT
  5
75EE
330
7443
100
AcDbEntity
 67
     1
  8
0
100
AcDbText
 10
176.3333333333333
 20
6.230338100985607
 30
0.0
 40
3.0
  1
4
  7
ADESK1
 72
     1
 11
177.8333333333333
 21
6.230338100985607
 31
0.0
100
AcDbText
  0
TEXT
  5
75EF
330
7443
100
AcDbEntity
 67
     1
  8
0
100
AcDbText
 10
132.7380952380952
 20
6.230338100985607
 30
0.0
 40
3.0
  1
3
  7
ADESK1
 72
     1
 11
134.1666666666666
 21
6.230338100985607
 31
0.0
100
AcDbText
  0
TEXT
  5
75F0
330
7443
100
AcDbEntity
 67
     1
  8
0
100
AcDbText
 10
89.07142857142856
 20
6.230338100985607
 30
0.0
 40
3.0
  1
2
  7
ADESK1
 72
     1
 11
90.5
 21
6.230338100985607
 31
0.0
100
AcDbText
  0
TEXT
  5
75F1
330
7443
100
AcDbEntity
 67
     1
  8
0
100
AcDbText
 10
45.61904761904759
 20
6.230338100985607
 30
0.0
 40
3.0
  1
1
  7
ADESK1
 72
     1
 11
46.83333333333331
 21
6.230338100985607
 31
0.0
100
AcDbText
  0
TEXT
  5
75F2
330
7443
100
AcDbEntity
 67
     1
  8
0
100
AcDbText
 10
21.37568307432492
 20
33.75
 30
0.0
 40
3.0
  1
D
  7
ADESK1
 72
     1
 11
22.94711164575349
 21
33.75
 31
0.0
100
AcDbText
  0
TEXT
  5
75F3
330
7443
100
AcDbEntity
 67
     1
  8
0
100
AcDbText
 10
21.44711164575349
 20
81.25
 30
0.0
 40
3.0
  1
C
  7
ADESK1
 72
     1
 11
22.94711164575349
 21
81.25
 31
0.0
100
AcDbText
  0
TEXT
  5
75F4
330
7443
100
AcDbEntity
 67
     1
  8
0
100
AcDbText
 10
21.37568307432492
 20
128.75
 30
0.0
 40
3.0
  1
B
  7
ADESK1
 72
     1
 11
22.94711164575349
 21
128.75
 31
0.0
100
AcDbText
  0
TEXT
  5
75F5
330
7443
100
AcDbEntity
 67
     1
  8
0
100
AcDbText
 10
263.6666666666666
 20
201.0
 30
0.0
 40
3.0
  1
6
  7
ADESK1
 72
     1
 11
265.1666666666666
 21
201.0
 31
0.0
100
AcDbText
  0
TEXT
  5
75F6
330
7443
100
AcDbEntity
 67
     1
  8
0
100
AcDbText
 10
220.0714285714286
 20
201.0
 30
0.0
 40
3.0
  1
5
  7
ADESK1
 72
     1
 11
221.4999999999999
 21
201.0
 31
0.0
100
AcDbText
  0
TEXT
  5
75F7
330
7443
100
AcDbEntity
 67
     1
  8
0
100
AcDbText
 10
176.3333333333333
 20
201.0
 30
0.0
 40
3.0
  1
4
  7
ADESK1
 72
     1
 11
177.8333333333333
 21
201.0
 31
0.0
100
AcDbText
  0
TEXT
  5
75F8
330
7443
100
AcDbEntity
 67
     1
  8
0
100
AcDbText
 10
132.7380952380952
 20
201.0
 30
0.0
 40
3.0
  1
3
  7
ADESK1
 72
     1
 11
134.1666666666666
 21
201.0
 31
0.0
100
AcDbText
  0
TEXT
  5
75F9
330
7443
100
AcDbEntity
 67
     1
  8
0
100
AcDbText
 10
89.07142857142856
 20
201.0
 30
0.0
 40
3.0
  1
2
  7
ADESK1
 72
     1
 11
90.5
 21
201.0
 31
0.0
100
AcDbText
  0
TEXT
  5
75FA
330
7443
100
AcDbEntity
 67
     1
  8
0
100
AcDbText
 10
21.66139736003921
 20
176.25
 30
0.0
 40
3.0
  1
A
  7
ADESK1
 72
     1
 11
22.94711164575349
 21
176.25
 31
0.0
100
AcDbText
  0
TEXT
  5
75FB
330
7443
100
AcDbEntity
 67
     1
  8
0
100
AcDbText
 10
45.61904761904761
 20
201.0
 30
0.0
 40
3.0
  1
1
  7
ADESK1
 72
     1
 11
46.83333333333332
 21
201.0
 31
0.0
100
AcDbText
  0
LINE
  5
75FC
330
7443
100
AcDbEntity
 67
     1
  8
0
100
AcDbLine
 10
68.66666666666666
 20
200.0
 30
0.0
 11
68.66666666666666
 21
205.0
 31
0.0
  0
LINE
  5
75FD
330
7443
100
AcDbEntity
 67
     1
  8
0
100
AcDbLine
 10
112.3333333333333
 20
200.0
 30
0.0
 11
112.3333333333333
 21
205.0
 31
0.0
  0
LINE
  5
75FE
330
7443
100
AcDbEntity
 67
     1
  8
0
100
AcDbLine
 10
156.0
 20
200.0
 30
0.0
 11
156.0
 21
205.0
 31
0.0
  0
LINE
  5
75FF
330
7443
100
AcDbEntity
 67
     1
  8
0
100
AcDbLine
 10
199.6666666666666
 20
200.0
 30
0.0
 11
199.6666666666666
 21
205.0
 31
0.0
  0
LINE
  5
7600
330
7443
100
AcDbEntity
 67
     1
  8
0
100
AcDbLine
 10
243.3333333333333
 20
200.0
 30
0.0
 11
243.3333333333333
 21
205.0
 31
0.0
  0
LINE
  5
7601
330
7443
100
AcDbEntity
 67
     1
  8
0
100
AcDbLine
 10
287.0
 20
152.5
 30
0.0
 11
292.0
 21
152.5
 31
0.0
  0
LINE
  5
7602
330
7443
100
AcDbEntity
 67
     1
  8
0
100
AcDbLine
 10
287.0
 20
105.0
 30
0.0
 11
292.0
 21
105.0
 31
0.0
  0
LINE
  5
7603
330
7443
100
AcDbEntity
 67
     1
  8
0
100
AcDbLine
 10
287.0
 20
57.5
 30
0.0
 11
292.0
 21
57.5
 31
0.0
  0
LINE
  5
7604
330
7443
100
AcDbEntity
 67
     1
  8
0
100
AcDbLine
 10
243.3333333333333
 20
10.0
 30
0.0
 11
243.3333333333333
 21
5.0
 31
0.0
  0
LINE
  5
7605
330
7443
100
AcDbEntity
 67
     1
  8
0
100
AcDbLine
 10
199.6666666666666
 20
10.0
 30
0.0
 11
199.6666666666666
 21
5.0
 31
0.0
  0
LINE
  5
7606
330
7443
100
AcDbEntity
 67
     1
  8
0
100
AcDbLine
 10
156.0
 20
10.0
 30
0.0
 11
156.0
 21
5.0
 31
0.0
  0
LINE
  5
7607
330
7443
100
AcDbEntity
 67
     1
  8
0
100
AcDbLine
 10
112.3333333333333
 20
10.0
 30
0.0
 11
112.3333333333333
 21
5.0
 31
0.0
  0
LINE
  5
7608
330
7443
100
AcDbEntity
 67
     1
  8
0
100
AcDbLine
 10
68.66666666666668
 20
10.0
 30
0.0
 11
68.66666666666668
 21
5.0
 31
0.0
  0
LINE
  5
7609
330
7443
100
AcDbEntity
 67
     1
  8
0
100
AcDbLine
 10
25.0
 20
57.5
 30
0.0
 11
20.0
 21
57.5
 31
0.0
  0
LINE
  5
760A
330
7443
100
AcDbEntity
 67
     1
  8
0
100
AcDbLine
 10
25.0
 20
105.0
 30
0.0
 11
20.0
 21
105.0
 31
0.0
  0
LINE
  5
760B
330
7443
100
AcDbEntity
 67
     1
  8
0
100
AcDbLine
 10
25.0
 20
152.5
 30
0.0
 11
20.0
 21
152.5
 31
0.0
  0
LINE
  5
760D
330
7443
100
AcDbEntity
 67
     1
  8
0
100
AcDbLine
 10
25.0
 20
105.0
 30
0.0
 11
7.656745581039785
 21
105.0
 31
0.0
  0
LINE
  5
760E
330
7443
100
AcDbEntity
 67
     1
  8
0
100
AcDbLine
 10
287.0
 20
105.0
 30
0.0
 11
297.0
 21
105.0
 31
0.0
  0
LINE
  5
760F
330
7443
100
AcDbEntity
 67
     1
  8
0
100
AcDbLine
 10
156.0
 20
200.0
 30
0.0
 11
156.0
 21
210.0
 31
0.0
  0
LINE
  5
7610
330
7443
100
AcDbEntity
 67
     1
  8
0
100
AcDbLine
 10
156.0
 20
10.0
 30
0.0
 11
156.0
 21
0.0
 31
0.0
  0
LINE
  5
7611
330
7443
100
AcDbEntity
 67
     1
  8
OBJECT
100
AcDbLine
 10
130.0
 20
22.0
 30
0.0
 11
130.0
 21
10.0
 31
0.0
  0
LINE
  5
7612
330
7443
100
AcDbEntity
 67
     1
  8
OBJECT
100
AcDbLine
 10
120.0
 20
10.0
 30
0.0
 11
120.0
 21
22.05060479168776
 31
0.0
  0
LINE
  5
7619
330
7443
100
AcDbEntity
 67
     1
  8
OBJECT
100
AcDbLine
 10
44.5
 20
19.0
 30
0.0
 11
45.49999999999999
 21
19.0
 31
0.0
  0
LINE
  5
761A
330
7443
100
AcDbEntity
 67
     1
  8
OBJECT
100
AcDbLine
 10
39.5
 20
19.0
 30
0.0
 11
40.49999999999999
 21
19.0
 31
0.0
  0
LINE
  5
7624
330
7443
100
AcDbEntity
 67
     1
  8
OBJECT
100
AcDbLine
 10
28.0
 20
17.535898
 30
0.0
 11
30.0
 21
20.99999999999999
 31
0.0
  0
LINE
  5
7625
330
7443
100
AcDbEntity
 67
     1
  8
OBJECT
100
AcDbLine
 10
28.0
 20
17.535898
 30
0.0
 11
32.0
 21
17.535898
 31
0.0
  0
LINE
  5
7626
330
7443
100
AcDbEntity
 67
     1
  8
OBJECT
100
AcDbLine
 10
32.0
 20
17.535898
 30
0.0
 11
30.0
 21
20.99999999999999
 31
0.0
  0
LINE
  5
7627
330
7443
100
AcDbEntity
 67
     1
  8
OBJECT
100
AcDbLine
 10
44.5
 20
13.0
 30
0.0
 11
45.49999999999999
 21
13.0
 31
0.0
  0
LINE
  5
7628
330
7443
100
AcDbEntity
 67
     1
  8
OBJECT
100
AcDbLine
 10
39.5
 20
13.0
 30
0.0
 11
40.49999999999999
 21
13.0
 31
0.0
  0
LINE
  5
7629
330
7443
100
AcDbEntity
 67
     1
  8
OBJECT
100
AcDbLine
 10
28.0
 20
11.53589799999999
 30
0.0
 11
32.0
 21
11.53589799999999
 31
0.0
  0
LINE
  5
762A
330
7443
100
AcDbEntity
 67
     1
  8
OBJECT
100
AcDbLine
 10
80.0
 20
10.0
 30
0.0
 11
80.0
 21
22.05060479168776
 31
0.0
  0
LINE
  5
762B
330
7443
100
AcDbEntity
 67
     1
  8
OBJECT
100
AcDbLine
 10
50.0
 20
10.0
 30
0.0
 11
50.0
 21
22.19611934575931
 31
0.0
  0
LINE
  5
762C
330
7443
100
AcDbEntity
 67
     1
  8
OBJECT
100
AcDbLine
 10
35.0
 20
10.0
 30
0.0
 11
35.0
 21
22.05060479168776
 31
0.0
  0
LINE
  5
762D
330
7443
100
AcDbEntity
 67
     1
  8
OBJECT
100
AcDbLine
 10
32.0
 20
11.53589799999999
 30
0.0
 11
30.0
 21
15.0
 31
0.0
  0
LINE
  5
762E
330
7443
100
AcDbEntity
 67
     1
  8
OBJECT
100
AcDbLine
 10
28.0
 20
11.53589799999999
 30
0.0
 11
30.0
 21
15.0
 31
0.0
  0
LINE
  5
7632
330
7443
100
AcDbEntity
 67
     1
  8
OBJECT
100
AcDbLine
 10
130.0
 20
22.0
 30
0.0
 11
25.0
 21
22.0
 31
0.0
  0
LINE
  5
7633
330
7443
100
AcDbEntity
 67
     1
  8
OBJECT
100
AcDbLine
 10
130.0
 20
16.0
 30
0.0
 11
25.0
 21
16.0
 31
0.0
  0
ATTDEF
  5
7634
330
7443
100
AcDbEntity
 67
     1
  8
0
 62
     0
100
AcDbText
 10
19.0
 20
118.0
 30
0.0
 40
3.0
  1

 50
90.0
  7
ADESK1
100
AcDbAttributeDefinition
  3

  2
A4
 70
     8
  0
ATTDEF
  5
7635
330
7443
100
AcDbEntity
 67
     1
  8
0
 62
     0
100
AcDbText
 10
19.0
 20
70.0
 30
0.0
 40
3.0
  1

 50
90.0
  7
ADESK1
100
AcDbAttributeDefinition
  3

  2
’04.5.12
 70
     8
  0
ATTDEF
  5
7636
330
7443
100
AcDbEntity
 67
     1
  8
0
 62
     0
100
AcDbText
 10
19.0
 20
10.0
 30
0.0
 40
3.0
  1

 50
90.0
  7
ADESK1
100
AcDbAttributeDefinition
  3

  2
CHIENOWA
 70
     8
  0
LINE
  5
7637
330
7443
100
AcDbEntity
 67
     1
  8
0
100
AcDbLine
 10
287.0
 20
210.0
 30
0.0
 11
297.0
 21
210.0
 31
0.0
  0
LINE
  5
7638
330
7443
100
AcDbEntity
 67
     1
  8
0
100
AcDbLine
 10
297.0
 20
10.0
 30
0.0
 11
297.0
 21
0.0
 31
0.0
  0
LINE
  5
7639
330
7443
100
AcDbEntity
 67
     1
  8
0
100
AcDbLine
 10
33.78020089530286
 20
0.0
 30
0.0
 11
8.780200895302868
 21
0.0
 31
0.0
  0
LINE
  5
763A
330
7443
100
AcDbEntity
 67
     1
  8
0
100
AcDbLine
 10
8.780200895302868
 20
200.0
 30
0.0
 11
8.780200895302868
 21
210.0
 31
0.0
  0
LINE
  5
763B
330
7443
100
AcDbEntity
 67
     1
  8
0
370
   100
100
AcDbLine
 10
25.0
 20
200.0
 30
0.0
 11
287.0
 21
200.0
 31
0.0
  0
LINE
  5
763C
330
7443
100
AcDbEntity
 67
     1
  8
0
370
   100
100
AcDbLine
 10
287.0
 20
200.0
 30
0.0
 11
287.0
 21
10.0
 31
0.0
  0
LINE
  5
763D
330
7443
100
AcDbEntity
 67
     1
  8
0
370
   100
100
AcDbLine
 10
287.0
 20
10.0
 30
0.0
 11
25.0
 21
10.0
 31
0.0
  0
LINE
  5
763E
330
7443
100
AcDbEntity
 67
     1
  8
0
370
   100
100
AcDbLine
 10
25.0
 20
10.0
 30
0.0
 11
25.0
 21
200.0
 31
0.0
  0
LINE
  5
763F
330
7443
100
AcDbEntity
 67
     1
  8
0
100
AcDbLine
 10
297.0
 20
0.0
 30
0.0
 11
287.0
 21
0.0
 31
0.0
  0
LINE
  5
7640
330
7443
100
AcDbEntity
 67
     1
  8
0
100
AcDbLine
 10
297.0
 20
210.0
 30
0.0
 11
297.0
 21
200.0
 31
0.0
  0
LINE
  5
7641
330
7443
100
AcDbEntity
 67
     1
  8
0
100
AcDbLine
 10
8.780200895302868
 20
210.0
 30
0.0
 11
33.78020089530286
 21
210.0
 31
0.0
  0
LINE
  5
7642
330
7443
100
AcDbEntity
 67
     1
  8
0
100
AcDbLine
 10
8.780200895302868
 20
0.0
 30
0.0
 11
8.780200895302868
 21
10.0
 31
0.0
  0
MTEXT
  5
7815
330
7443
100
AcDbEntity
 67
     1
  8
0
100
AcDbMText
 10
256.1745635777577
 20
15.84195390638958
 30
0.0
 40
4.7
 41
59.8821
 71
     5
 72
     5
  1
{\fHG正楷書体-PRO|b0|i0|c128|p18;知恵の輪有限会社}
 73
     1
 44
1.0
  0
LINE
  5
7C15
330
7443
100
AcDbEntity
 67
     1
  8
0
 62
     0
100
AcDbLine
 10
210.7517730496446
 20
32.00463391763799
 30
0.0
 11
210.7517730496447
 21
10.0
 31
0.0
  0
LINE
  5
7C16
330
7443
100
AcDbEntity
 67
     1
  8
0
 62
     0
100
AcDbLine
 10
195.7517730496447
 20
32.00926807389133
 30
0.0
 11
195.7517730496447
 21
10.0
 31
0.0
  0
LINE
  5
7C17
330
7443
100
AcDbEntity
 67
     1
  8
0
 62
     0
100
AcDbLine
 10
180.7517730496447
 20
32.01390223014469
 30
0.0
 11
180.7517730496447
 21
10.0
 31
0.0
  0
LINE
  5
7C18
330
7443
100
AcDbEntity
 67
     1
  8
0
 62
     0
100
AcDbLine
 10
180.7502283309673
 20
27.01390246876026
 30
0.0
 11
225.7502283309673
 21
27.00000000000022
 31
0.0
  0
MTEXT
  5
7E96
330
7443
100
AcDbEntity
 67
     1
  8
0
100
AcDbMText
 10
256.3758730496447
 20
29.50000000000018
 30
0.0
 40
3.5
 41
61.24819999999999
 71
     5
 72
     5
  1
{\fMS UI Gothic|b0|i0|c128|p50;KCEC-B外形図}
 73
     1
 44
1.0
  0
MTEXT
  5
84CE
330
7443
100
AcDbEntity
 67
     1
  8
0
100
AcDbMText
 10
249.661488826047
 20
198.7951604137359
 30
0.0
 40
2.5
 41
7.386014136190869
 71
     1
 72
     5
  1
Q'TY
 73
     1
 44
1.0
  0
LINE
  5
84CF
330
7443
100
AcDbEntity
 67
     1
  8
0
100
AcDbLine
 10
287.0
 20
195.0
 30
0.0
 11
191.9999678953221
 21
195.0
 31
0.0
  0
LINE
  5
84D0
330
7443
100
AcDbEntity
 67
     1
  8
0
100
AcDbLine
 10
287.0
 20
190.0
 30
0.0
 11
191.9999678953221
 21
190.0
 31
0.0
  0
LINE
  5
84D1
330
7443
100
AcDbEntity
 67
     1
  8
0
100
AcDbLine
 10
287.0
 20
185.0
 30
0.0
 11
191.9999678953221
 21
185.0
 31
0.0
  0
LINE
  5
84D2
330
7443
100
AcDbEntity
 67
     1
  8
0
100
AcDbLine
 10
287.0
 20
180.0
 30
0.0
 11
191.9999678953221
 21
180.0
 31
0.0
  0
LINE
  5
84D8
330
7443
100
AcDbEntity
 67
     1
  8
0
100
AcDbLine
 10
246.4999678953222
 20
170.0
 30
0.0
 11
246.4999678953221
 21
200.0
 31
0.0
  0
LINE
  5
84D9
330
7443
100
AcDbEntity
 67
     1
  8
0
100
AcDbLine
 10
228.4999678953222
 20
170.0
 30
0.0
 11
228.4999678953222
 21
200.0
 31
0.0
  0
LINE
  5
84DA
330
7443
100
AcDbEntity
 67
     1
  8
0
100
AcDbLine
 10
200.9999678953221
 20
170.0
 30
0.0
 11
200.9999678953221
 21
200.0
 31
0.0
  0
LINE
  5
84DB
330
7443
100
AcDbEntity
 67
     1
  8
0
100
AcDbLine
 10
191.9999678953221
 20
170.0
 30
0.0
 11
191.9999678953221
 21
200.0
 31
0.0
  0
MTEXT
  5
84DD
330
7443
100
AcDbEntity
 67
     1
  8
0
  6
ACAD_ISO10W100
100
AcDbMText
 10
214.8841557502343
 20
187.539986835743
 30
0.0
 40
2.0
 41
25.6759
 71
     5
 72
     5
  1
{\fMS UI Gothic|b0|i0|c128|p50;本体}
 73
     1
 44
1.0
  0
MTEXT
  5
84DE
330
7443
100
AcDbEntity
 67
     1
  8
0
100
AcDbMText
 10
202.2334443472972
 20
198.6160494811454
 30
0.0
 40
2.5
 41
28.72083944037949
 71
     1
 72
     5
  1
N  A  M  E
 73
     1
 44
1.0
  0
MTEXT
  5
84DF
330
7443
100
AcDbEntity
 67
     1
  8
0
100
AcDbMText
 10
195.7665966715335
 20
183.7943603895773
 30
0.0
 40
2.5
 41
1.482438897894217
 71
     1
 72
     5
  1
3
 73
     1
 44
1.0
  0
MTEXT
  5
84E1
330
7443
100
AcDbEntity
 67
     1
  8
0
100
AcDbMText
 10
195.6876776435872
 20
188.7359842217936
 30
0.0
 40
2.5
 41
1.778927214860577
 71
     1
 72
     5
  1
2
 73
     1
 44
1.0
  0
MTEXT
  5
84E2
330
7443
100
AcDbEntity
 67
     1
  8
0
100
AcDbMText
 10
194.5017261670136
 20
198.7373675437641
 30
0.0
 40
2.5
 41
4.5461
 71
     1
 72
     5
  1
NO
 73
     1
 44
1.0
  0
MTEXT
  5
84E3
330
7443
100
AcDbEntity
 67
     1
  8
0
100
AcDbMText
 10
195.9512218000218
 20
193.6795972279289
 30
0.0
 40
2.5
 41
1.2189
 71
     1
 72
     5
  1
1
 73
     1
 44
1.0
  0
MTEXT
  5
84E6
330
7443
100
AcDbEntity
 67
     1
  8
0
100
AcDbMText
 10
229.4037295990498
 20
198.6160485031371
 30
0.0
 40
2.299999999999999
 41
16.3735
 71
     1
 72
     5
  1
MATERIAL
 73
     1
 44
1.0
  0
MTEXT
  5
84E7
330
7443
100
AcDbEntity
 67
     1
  8
0
  6
ACAD_ISO10W100
100
AcDbMText
 10
214.6599182797575
 20
182.4990274163445
 30
0.0
 40
2.0
 41
26.1244
 71
     5
 72
     5
  1
{\fMS UI Gothic|b0|i0|c128|p50;リード線}
 73
     1
 44
1.0
  0
MTEXT
  5
84E8
330
7443
100
AcDbEntity
 67
     1
  8
0
  6
ACAD_ISO10W100
100
AcDbMText
 10
214.6599218009147
 20
192.6369572712216
 30
0.0
 40
2.5
 41
24.5547
 71
     5
 72
     5
  1
{\fMS UI Gothic|b0|i0|c128|p50;ヘッドリード線}
 73
     1
 44
1.0
  0
MTEXT
  5
84EA
330
7443
100
AcDbEntity
 67
     1
  8
0
  6
ACAD_ISO10W100
100
AcDbMText
 10
237.476741520263
 20
182.6110487150434
 30
0.0
 40
2.0
 41
16.8183
 71
     5
 72
     5
  1
{\fMS UI Gothic|b0|i0|c128|p50;耐油性PVC}
 73
     1
 44
1.0
  0
MTEXT
  5
84EB
330
7443
100
AcDbEntity
 67
     1
  8
0
  6
ACAD_ISO10W100
100
AcDbMText
 10
253.4541010870847
 20
182.6670594866364
 30
0.0
 40
2.0
 41
12.894
 71
     5
 72
     5
  1
1
 73
     1
 44
1.0
  0
MTEXT
  5
84ED
330
7443
100
AcDbEntity
 67
     1
  8
0
  6
ACAD_ISO10W100
100
AcDbMText
 10
253.4541010870847
 20
187.652008378929
 30
0.0
 40
2.0
 41
12.894
 71
     5
 72
     5
  1
1
 73
     1
 44
1.0
  0
MTEXT
  5
84EE
330
7443
100
AcDbEntity
 67
     1
  8
0
  6
ACAD_ISO10W100
100
AcDbMText
 10
237.5888352555016
 20
192.5249357280357
 30
0.0
 40
2.0
 41
16.594
 71
     5
 72
     5
  1
{\fMS UI Gothic|b0|i0|c128|p50;PVC}
 73
     1
 44
1.0
  0
MTEXT
  5
84EF
330
7443
100
AcDbEntity
 67
     1
  8
0
  6
ACAD_ISO10W100
100
AcDbMText
 10
253.3980734025268
 20
192.6929677983275
 30
0.0
 40
2.0
 41
12.5577
 71
     5
 72
     5
  1
1
 73
     1
 44
1.0
  0
LINE
  5
84F0
330
7443
100
AcDbEntity
 67
     1
  8
0
100
AcDbLine
 10
260.4999678953221
 20
170.0
 30
0.0
 11
260.4999678953221
 21
200.0
 31
0.0
  0
MTEXT
  5
84F4
330
7443
100
AcDbEntity
 67
     1
  8
0
100
AcDbMText
 10
265.3776848149421
 20
198.6757529623409
 30
0.0
 40
2.5
 41
15.70424555324459
 71
     1
 72
     5
  1
REMARKS
 73
     1
 44
1.0
  0
LINE
  5
84F9
330
7443
100
AcDbEntity
 67
     1
  8
0
  6
ACAD_ISO10W100
100
AcDbLine
 10
234.167688666482
 20
187.5179976326861
 30
0.0
 11
241.7919801428165
 21
187.5179976326861
 31
0.0
  0
MTEXT
  5
84FA
330
7443
100
AcDbEntity
 67
     1
  8
0
  6
CENTER2
100
AcDbMText
 10
262.5631058255369
 20
183.6196052855524
 30
0.0
 40
2.0
 41
21.42959999999999
 71
     1
 72
     5
  1
{\fMS UI Gothic|b0|i0|c128|p50;３芯　0.2ｃ㎡}
 73
     1
 44
1.0
  0
LINE
  5
86BB
330
7443
100
AcDbEntity
 67
     1
  8
0
100
AcDbLine
 10
287.0
 20
175.0
 30
0.0
 11
191.9999678953221
 21
175.0
 31
0.0
  0
LINE
  5
86BC
330
7443
100
AcDbEntity
 67
     1
  8
0
100
AcDbLine
 10
287.0
 20
170.0
 30
0.0
 11
191.9999678953221
 21
170.0
 31
0.0
  0
MTEXT
  5
86BD
330
7443
100
AcDbEntity
 67
     1
  8
0
100
AcDbMText
 10
195.7665966715335
 20
178.7943603895773
 30
0.0
 40
2.5
 41
1.482399999999999
 71
     1
 72
     5
  1
4
 73
     1
 44
1.0
  0
MTEXT
  5
86BE
330
7443
100
AcDbEntity
 67
     1
  8
0
100
AcDbMText
 10
195.7665966715335
 20
173.7943603895773
 30
0.0
 40
2.5
 41
1.482399999999999
 71
     1
 72
     5
  1
5
 73
     1
 44
1.0
  0
MTEXT
  5
86BF
330
7443
100
AcDbEntity
 67
     1
  8
0
  6
CENTER2
100
AcDbMText
 10
214.7499678953221
 20
177.5
 30
0.0
 40
2.5
 41
27.5
 71
     5
 72
     5
  1
{\fMS UI Gothic|b0|i0|c128|p17;ヘッドケース}
 73
     1
 44
1.0
  0
MTEXT
  5
86C0
330
7443
100
AcDbEntity
 67
     1
  8
0
  6
CENTER2
100
AcDbMText
 10
214.7499678953221
 20
172.5
 30
0.0
 40
2.5
 41
27.5
 71
     5
 72
     5
  1
{\fMS UI Gothic|b0|i0|c128|p17;ヘッドキャップ}
 73
     1
 44
1.0
  0
MTEXT
  5
86C1
330
7443
100
AcDbEntity
 67
     1
  8
0
  6
CENTER2
100
AcDbMText
 10
237.4999678953222
 20
177.5
 30
0.0
 40
2.5
 41
18.0
 71
     5
 72
     5
  1
SUS304
 73
     1
 44
1.0
  0
MTEXT
  5
86C2
330
7443
100
AcDbEntity
 67
     1
  8
0
  6
CENTER2
100
AcDbMText
 10
237.4999678953222
 20
172.5
 30
0.0
 40
3.5
 41
18.0
 71
     5
 72
     5
  1
PFA
 73
     1
 44
1.0
  0
MTEXT
  5
86C3
330
7443
100
AcDbEntity
 67
     1
  8
0
  6
ACAD_ISO10W100
100
AcDbMText
 10
253.4541010870847
 20
177.6670594866364
 30
0.0
 40
2.0
 41
12.894
 71
     5
 72
     5
  1
1
 73
     1
 44
1.0
  0
MTEXT
  5
86C4
330
7443
100
AcDbEntity
 67
     1
  8
0
  6
ACAD_ISO10W100
100
AcDbMText
 10
253.4541010870847
 20
172.6670594866364
 30
0.0
 40
2.0
 41
12.894
 71
     5
 72
     5
  1
1
 73
     1
 44
1.0
  0
MTEXT
  5
87FF
102
{ACAD_REACTORS
330
8800
102
}
330
7443
100
AcDbEntity
 67
     1
  8
0
  6
ACAD_ISO10W100
100
AcDbMText
 10
104.1896378401832
 20
140.7745086924595
 30
0.0
 40
2.0
 41
0.0
 71
     4
 72
     1
  1
{\fMS UI Gothic|b0|i0|c128|p17;50×50×1t\P（SPCC板）}
 73
     1
 44
1.0
  0
LEADER
  5
8800
330
7443
100
AcDbEntity
 67
     1
  8
DEFPOINTS
  6
ACAD_ISO10W100
100
AcDbLeader
  3
JIS
 73
     0
 74
     0
 75
     1
 40
5.969696969696969
 41
15.72727272727272
 76
     3
 10
94.57248098230973
 20
151.2033189725744
 30
0.0
 10
101.6896378401832
 20
137.789660207611
 30
0.0
 10
104.1896378401832
 20
137.789660207611
 30
0.0
1001
ACAD
1000
DSTYLE
1002
{
1070
   172
1070
     0
1070
    77
1070
     2
1002
}
  0
LINE
  5
8802
330
7443
100
AcDbEntity
 67
     1
  8
0
100
AcDbLine
 10
94.57248098230973
 20
127.6853438627756
 30
0.0
 11
94.57248098230973
 21
157.6853438627756
 31
0.0
  0
LINE
  5
8803
330
7443
100
AcDbEntity
 67
     1
  8
0
100
AcDbLine
 10
93.57248098230973
 20
127.6853438627756
 30
0.0
 11
93.57248098230973
 21
157.6853438627756
 31
0.0
  0
MTEXT
  5
8807
330
7443
100
AcDbEntity
 67
     1
  8
0
  6
ACAD_ISO10W100
100
AcDbMText
 10
60.05707105176639
 20
123.7744420483426
 30
0.0
 40
2.5
 41
29.9938
 71
     1
 72
     5
  1
{\fMS UI Gothic|b0|i0|c128|p17;\L検出距離測定方法}
 73
     1
 44
1.0
  0
LINE
  5
8809
330
7443
100
AcDbEntity
 67
     1
  8
0
100
AcDbLine
 10
94.57248098230973
 20
127.6853438627756
 30
0.0
 11
93.57248098230973
 21
127.6853438627756
 31
0.0
  0
LINE
  5
880A
330
7443
100
AcDbEntity
 67
     1
  8
0
100
AcDbLine
 10
103.5724809823097
 20
132.6853438627756
 30
0.0
 11
94.57248098230973
 21
132.6853438627756
 31
0.0
  0
LINE
  5
880B
330
7443
100
AcDbEntity
 67
     1
  8
0
100
AcDbLine
 10
94.57248098230973
 20
127.6853438627756
 30
0.0
 11
93.57248098230973
 21
127.6853438627756
 31
0.0
  0
LINE
  5
880C
330
7443
100
AcDbEntity
 67
     1
  8
0
100
AcDbLine
 10
103.5724809823097
 20
127.6853438627756
 30
0.0
 11
103.5724809823097
 21
132.6853438627756
 31
0.0
  0
LINE
  5
880D
330
7443
100
AcDbEntity
 67
     1
  8
0
100
AcDbLine
 10
105.0724809823097
 20
127.6853438627756
 30
0.0
 11
102.0724809823097
 21
127.6853438627756
 31
0.0
  0
LINE
  5
880E
330
7443
100
AcDbEntity
 67
     1
  8
0
100
AcDbLine
 10
104.6760986376814
 20
127.6853438627756
 30
0.0
 11
103.7423493581677
 21
125.6853438627756
 31
0.0
  0
LINE
  5
880F
330
7443
100
AcDbEntity
 67
     1
  8
0
100
AcDbLine
 10
102.468863326938
 20
127.6853438627756
 30
0.0
 11
101.5351140474242
 21
125.6853438627756
 31
0.0
  0
LINE
  5
8810
330
7443
100
AcDbEntity
 67
     1
  8
0
100
AcDbLine
 10
103.5724809823097
 20
127.6853438627756
 30
0.0
 11
102.638731702796
 21
125.6853438627756
 31
0.0
  0
LINE
  5
8819
330
7443
100
AcDbEntity
 67
     1
  8
0
  6
ACAD_ISO10W100
 62
     5
 48
0.05
100
AcDbLine
 10
97.57248098230974
 20
142.6853438627756
 30
0.0
 11
55.17178767061732
 21
142.6853438627756
 31
0.0
  0
LINE
  5
881A
330
7443
100
AcDbEntity
 67
     1
  8
0
100
AcDbLine
 10
94.57248098230973
 20
157.6853438627756
 30
0.0
 11
93.57248098230973
 21
157.6853438627756
 31
0.0
  0
DIMENSION
  5
8844
330
7443
100
AcDbEntity
 67
     1
  8
0
  6
CENTER2
100
AcDbDimension
  2
*D93
 10
93.57248098230973
 20
133.1891390780637
 30
0.0
 11
83.46983467135215
 21
129.8488280097409
 31
0.0
 70
   160
  1
検出距離
 71
     5
 42
20.38906106291006
  3
JIS$0
100
AcDbAlignedDimension
 13
73.18341991939966
 23
129.6853438627756
 33
0.0
 14
93.57248098230973
 24
129.6853438627756
 34
0.0
100
AcDbRotatedDimension
1001
ACAD
1000
DSTYLE
1002
{
1070
   279
1070
     2
1070
   340
1005
744A
1002
}
  0
MTEXT
  5
8895
330
7443
100
AcDbEntity
 67
     1
  8
0
  6
ACAD_ISO10W100
100
AcDbMText
 10
140.9349114797836
 20
150.9437834188667
 30
0.0
 40
3.5
 41
17.0378
 71
     1
 72
     5
  1
{\fMS UI Gothic|b0|i0|c128|p17;\L結線図}
 73
     1
 44
1.0
  0
LINE
  5
8896
330
7443
100
AcDbEntity
 67
     1
  8
0
  6
ACAD_ISO10W100
 62
     5
100
AcDbLine
 10
138.1173515225811
 20
174.2975730595532
 30
0.0
 11
142.1173515225811
 21
174.2975730595532
 31
0.0
  0
LINE
  5
8897
330
7443
100
AcDbEntity
 67
     1
  8
0
  6
ACAD_ISO10W100
 62
     5
100
AcDbLine
 10
138.1173515225811
 20
159.2975730595532
 30
0.0
 11
142.1173515225811
 21
159.2975730595532
 31
0.0
  0
LINE
  5
8898
330
7443
100
AcDbEntity
 67
     1
  8
0
100
AcDbLine
 10
130.6173515225812
 20
154.2975730595532
 30
0.0
 11
144.6173515225811
 21
154.2975730595532
 31
0.0
  0
LINE
  5
8899
330
7443
100
AcDbEntity
 67
     1
  8
0
100
AcDbLine
 10
130.6173515225812
 20
194.2975730595532
 30
0.0
 11
144.6173515225811
 21
194.2975730595532
 31
0.0
  0
LINE
  5
889A
330
7443
100
AcDbEntity
 67
     1
  8
0
  6
ACAD_ISO10W100
 62
     5
100
AcDbLine
 10
138.1173515225811
 20
159.2975730595532
 30
0.0
 11
138.1173515225811
 21
162.7378661973145
 31
0.0
  0
LINE
  5
889B
330
7443
100
AcDbEntity
 67
     1
  8
0
100
AcDbLine
 10
130.6173515225812
 20
154.2975730595532
 30
0.0
 11
130.6173515225812
 21
194.2975730595532
 31
0.0
  0
LINE
  5
889C
330
7443
100
AcDbEntity
 67
     1
  8
0
  6
ACAD_ISO10W100
 62
     5
100
AcDbLine
 10
138.1173515225811
 20
170.4838328897294
 30
0.0
 11
138.1173515225811
 21
174.2975730595532
 31
0.0
  0
ARC
  5
889D
330
7443
100
AcDbEntity
 67
     1
  8
0
  6
ACAD_ISO10W100
 62
     5
100
AcDbCircle
 10
138.1173515225811
 20
166.610849543522
 30
0.0
 40
3.0
100
AcDbArc
 50
104.4775121859298
 51
255.52248781407
  0
LINE
  5
889E
330
7443
100
AcDbEntity
 67
     1
  8
0
  6
ACAD_ISO10W100
 62
     5
100
AcDbLine
 10
135.1173515225811
 20
162.7975730595531
 30
0.0
 11
135.1173515225811
 21
170.7975730595532
 31
0.0
  0
ARC
  5
889F
330
7443
100
AcDbEntity
 67
     1
  8
0
  6
ACAD_ISO10W100
 62
     5
100
AcDbCircle
 10
137.1173515225811
 20
162.7378661973145
 30
0.0
 40
1.0
100
AcDbArc
 50
0.0
 51
75.52248781407015
  0
HATCH
  5
88A0
330
7443
100
AcDbEntity
 67
     1
  8
0
100
AcDbHatch
 10
0.0
 20
0.0
 30
0.0
210
0.0
220
0.0
230
1.0
  2
SOLID
 70
     1
 71
     1
 91
        1
 92
        1
 93
        3
 72
     1
 10
137.3673515225812
 20
163.7061120338664
 11
135.8075341326296
 21
163.9648970991316
 72
     1
 10
135.8075341326296
 20
163.9648970991316
 11
136.274768649779
 21
164.8490305200496
 72
     1
 10
136.274768649779
 20
164.8490305200496
 11
137.3673515225812
 21
163.7061120338664
 97
        3
330
88A2
330
88A1
330
88A3
 75
     0
 76
     1
 98
        1
 10
-98.50322466434239
 20
90.23219950792606
  0
LINE
  5
88A1
102
{ACAD_REACTORS
330
88A0
102
}
330
7443
100
AcDbEntity
 67
     1
  8
0
100
AcDbLine
 10
136.274768649779
 20
164.8490305200496
 30
0.0
 11
135.8075341326296
 21
163.9648970991316
 31
0.0
  0
LINE
  5
88A2
102
{ACAD_REACTORS
330
88A0
102
}
330
7443
100
AcDbEntity
 67
     1
  8
0
100
AcDbLine
 10
137.3673515225812
 20
163.7061120338664
 30
0.0
 11
135.8075341326296
 21
163.9648970991316
 31
0.0
  0
LINE
  5
88A3
102
{ACAD_REACTORS
330
88A0
102
}
330
7443
100
AcDbEntity
 67
     1
  8
0
100
AcDbLine
 10
137.3673515225812
 20
163.7061120338664
 30
0.0
 11
136.274768649779
 21
164.8490305200496
 31
0.0
  0
ARC
  5
88A4
330
7443
100
AcDbEntity
 67
     1
  8
0
  6
ACAD_ISO10W100
 62
     5
100
AcDbCircle
 10
137.1173515225811
 20
170.4838328897294
 30
0.0
 40
1.0
100
AcDbArc
 50
284.4775121859298
 51
0.0
  0
MTEXT
  5
88A5
330
7443
100
AcDbEntity
 67
     1
  8
0
  6
ACAD_ISO10W100
100
AcDbMText
 10
154.088545274175
 20
163.176658510931
 30
0.0
 40
2.0
 41
12.40599999999999
 71
     5
 72
     5
  1
{\fMS UI Gothic|b0|i0|c128|p17;青}
 73
     1
 44
1.0
  0
LINE
  5
88A6
330
7443
100
AcDbEntity
 67
     1
  8
0
  6
ACAD_ISO10W100
 62
     5
100
AcDbLine
 10
142.1173515225811
 20
159.2975730595532
 30
0.0
 11
142.1173515225811
 21
165.2975730595532
 31
0.0
  0
LINE
  5
88A7
330
7443
100
AcDbEntity
 67
     1
  8
0
100
AcDbLine
 10
144.6173515225811
 20
154.2975730595532
 30
0.0
 11
144.6173515225811
 21
194.2975730595532
 31
0.0
  0
LINE
  5
88A8
330
7443
100
AcDbEntity
 67
     1
  8
0
100
AcDbLine
 10
154.1173515225812
 20
159.2975730595532
 30
0.0
 11
174.6173515225811
 21
159.2975730595532
 31
0.0
  0
LINE
  5
88A9
330
7443
100
AcDbEntity
 67
     1
  8
0
100
AcDbLine
 10
144.6173515225811
 20
159.2975730595532
 30
0.0
 11
152.6173515225812
 21
159.2975730595532
 31
0.0
  0
CIRCLE
  5
88AA
330
7443
100
AcDbEntity
 67
     1
  8
0
100
AcDbCircle
 10
153.3673515225812
 20
159.2975730595532
 30
0.0
 40
0.75
  0
CIRCLE
  5
88AB
330
7443
100
AcDbEntity
 67
     1
  8
0
100
AcDbCircle
 10
175.3673515225812
 20
159.2975730595532
 30
0.0
 40
0.75
  0
MTEXT
  5
88AC
330
7443
100
AcDbEntity
 67
     1
  8
0
  6
ACAD_ISO10W100
100
AcDbMText
 10
178.5156057833421
 20
160.313009775967
 30
0.0
 40
2.0
 41
5.818000020380935
 71
     1
 72
     5
  1
GND
 73
     1
 44
1.0
  0
LINE
  5
88AD
330
7443
100
AcDbEntity
 67
     1
  8
0
100
AcDbLine
 10
154.1173515225812
 20
189.2975730595532
 30
0.0
 11
174.6173515225811
 21
189.2975730595532
 31
0.0
  0
LINE
  5
88AE
330
7443
100
AcDbEntity
 67
     1
  8
0
100
AcDbLine
 10
166.1173515225812
 20
174.2975730595532
 30
0.0
 11
171.1173515225812
 21
174.2975730595532
 31
0.0
  0
MTEXT
  5
88AF
330
7443
100
AcDbEntity
 67
     1
  8
0
  6
ACAD_ISO10W100
100
AcDbMText
 10
153.4468922624737
 20
177.7086074300104
 30
0.0
 40
2.0
 41
7.272499999999999
 71
     5
 72
     5
  1
{\fMS UI Gothic|b0|i0|c128|p17;黒}
 73
     1
 44
1.0
  0
LINE
  5
88B0
330
7443
100
AcDbEntity
 67
     1
  8
0
100
AcDbLine
 10
154.1173515225812
 20
174.2975730595532
 30
0.0
 11
158.6173515225812
 21
174.2975730595532
 31
0.0
  0
LINE
  5
88B1
330
7443
100
AcDbEntity
 67
     1
  8
0
  6
ACAD_ISO10W100
 62
     5
100
AcDbLine
 10
142.1173515225811
 20
166.7975730595532
 30
0.0
 11
142.1173515225811
 21
174.2975730595532
 31
0.0
  0
LINE
  5
88B2
330
7443
100
AcDbEntity
 67
     1
  8
0
100
AcDbLine
 10
142.1173515225811
 20
166.7975730595532
 30
0.0
 11
142.6173515225812
 21
165.2975730595532
 31
0.0
  0
LINE
  5
88B3
330
7443
100
AcDbEntity
 67
     1
  8
0
100
AcDbLine
 10
142.1173515225811
 20
166.7975730595532
 30
0.0
 11
141.6173515225812
 21
165.2975730595532
 31
0.0
  0
LINE
  5
88B4
330
7443
100
AcDbEntity
 67
     1
  8
0
100
AcDbLine
 10
141.6173515225812
 20
165.2975730595532
 30
0.0
 11
142.6173515225812
 21
165.2975730595532
 31
0.0
  0
LINE
  5
88B5
330
7443
100
AcDbEntity
 67
     1
  8
0
100
AcDbLine
 10
141.6173515225812
 20
166.7975730595532
 30
0.0
 11
142.6173515225812
 21
166.7975730595532
 31
0.0
  0
LINE
  5
88B6
330
7443
100
AcDbEntity
 67
     1
  8
0
100
AcDbLine
 10
144.6173515225811
 20
174.2975730595532
 30
0.0
 11
152.6173515225812
 21
174.2975730595532
 31
0.0
  0
CIRCLE
  5
88B7
330
7443
100
AcDbEntity
 67
     1
  8
0
100
AcDbCircle
 10
153.3673515225812
 20
174.2975730595532
 30
0.0
 40
0.75
  0
MTEXT
  5
88B8
330
7443
100
AcDbEntity
 67
     1
  8
0
  6
ACAD_ISO10W100
100
AcDbMText
 10
162.3449869353412
 20
174.4090845636052
 30
0.0
 40
2.0
 41
6.4169
 71
     5
 72
     5
  1
{\fMS UI Gothic|b0|i0|c128|p17;負荷}
 73
     1
 44
1.0
  0
LINE
  5
88B9
330
7443
100
AcDbEntity
 67
     1
  8
0
100
AcDbLine
 10
158.6173515225812
 20
171.7975730595532
 30
0.0
 11
166.1173515225812
 21
171.7975730595532
 31
0.0
  0
LINE
  5
88BA
330
7443
100
AcDbEntity
 67
     1
  8
0
100
AcDbLine
 10
158.6173515225812
 20
176.7975730595532
 30
0.0
 11
166.1173515225812
 21
176.7975730595532
 31
0.0
  0
LINE
  5
88BB
330
7443
100
AcDbEntity
 67
     1
  8
0
100
AcDbLine
 10
158.6173515225812
 20
171.7975730595532
 30
0.0
 11
158.6173515225812
 21
176.7975730595532
 31
0.0
  0
LINE
  5
88BC
330
7443
100
AcDbEntity
 67
     1
  8
0
100
AcDbLine
 10
166.1173515225812
 20
171.7975730595532
 30
0.0
 11
166.1173515225812
 21
176.7975730595532
 31
0.0
  0
MTEXT
  5
88BD
330
7443
100
AcDbEntity
 67
     1
  8
0
  6
ACAD_ISO10W100
100
AcDbMText
 10
154.0457922624737
 20
192.4542614102406
 30
0.0
 40
2.0
 41
7.5292
 71
     5
 72
     5
  1
{\fMS UI Gothic|b0|i0|c128|p17;茶}
 73
     1
 44
1.0
  0
LINE
  5
88BE
330
7443
100
AcDbEntity
 67
     1
  8
0
100
AcDbLine
 10
144.6173515225811
 20
189.2975730595532
 30
0.0
 11
152.6173515225812
 21
189.2975730595532
 31
0.0
  0
CIRCLE
  5
88BF
330
7443
100
AcDbEntity
 67
     1
  8
0
100
AcDbCircle
 10
153.3673515225812
 20
189.2975730595532
 30
0.0
 40
0.75
  0
LINE
  5
88C0
330
7443
100
AcDbEntity
 67
     1
  8
0
100
AcDbLine
 10
171.1173515225812
 20
174.2975730595532
 30
0.0
 11
171.1173515225812
 21
189.2975730595532
 31
0.0
  0
MTEXT
  5
88C1
330
7443
100
AcDbEntity
 67
     1
  8
0
  6
ACAD_ISO10W100
100
AcDbMText
 10
182.3229527563551
 20
189.7188358950757
 30
0.0
 40
2.0
 41
11.5504
 71
     5
 72
     5
  1
DC12V\P{\fMS UI Gothic|b0|i0|c128|p17;～}24V
 73
     1
 44
1.0
  0
CIRCLE
  5
88C2
330
7443
100
AcDbEntity
 67
     1
  8
0
100
AcDbCircle
 10
175.3673515225812
 20
189.2975730595532
 30
0.0
 40
0.75
  0
LINE
  5
8919
330
7443
100
AcDbEntity
 67
     1
  8
0
  6
CENTER2
100
AcDbLine
 10
50.5200861500338
 20
138.0401199213052
 30
0.0
 11
73.52008615003381
 21
138.0401199213052
 31
0.0
  0
LINE
  5
891C
330
7443
100
AcDbEntity
 67
     1
  8
0
  6
CENTER2
100
AcDbLine
 10
50.52008615003381
 20
148.0401199213052
 30
0.0
 11
73.52008615003382
 21
148.0401199213052
 31
0.0
  0
LINE
  5
891E
330
7443
100
AcDbEntity
 67
     1
  8
0
  6
CENTER2
100
AcDbLine
 10
73.52008615003381
 20
138.0401199213052
 30
0.0
 11
73.52008615003381
 21
148.0401199213052
 31
0.0
  0
LINE
  5
891F
330
7443
100
AcDbEntity
 67
     1
  8
0
100
AcDbLine
 10
50.52008615003381
 20
144.0401199213052
 30
0.0
 11
32.77845669403117
 21
144.0401199213052
 31
0.0
  0
LINE
  5
8920
330
7443
100
AcDbEntity
 67
     1
  8
0
100
AcDbLine
 10
50.52008615003381
 20
142.0401199213053
 30
0.0
 11
33.40772140861206
 21
142.0401199213053
 31
0.0
  0
LINE
  5
8923
330
7443
100
AcDbEntity
 67
     1
  8
0
  6
CENTER2
100
AcDbLine
 10
69.5200861500338
 20
138.0401199213052
 30
0.0
 11
69.5200861500338
 21
148.0401199213052
 31
0.0
  0
LINE
  5
8924
330
7443
100
AcDbEntity
 67
     1
  8
0
  6
CENTER2
100
AcDbLine
 10
50.5200861500338
 20
138.0401199213052
 30
0.0
 11
50.5200861500338
 21
148.0401199213052
 31
0.0
  0
MTEXT
  5
89B5
330
7443
100
AcDbEntity
 67
     1
  8
0
  6
CENTER2
100
AcDbMText
 10
182.6580596304788
 20
15.44433135139011
 30
0.0
 40
3.0
 41
12.30341910151096
 71
     1
 72
     5
  1
{\fMS UI Gothic|b0|i0|c128|p17;T.Natsui}
 11
0.7071067811865476
 21
0.7071067811865475
 31
0.0
 73
     1
 44
1.0
  0
MTEXT
  5
89B6
330
7443
100
AcDbEntity
 67
     1
  8
0
  6
CENTER2
100
AcDbMText
 10
198.1792802546889
 20
15.44433135139011
 30
0.0
 40
3.0
 41
12.30341910151096
 71
     1
 72
     5
  1
{\fMS UI Gothic|b0|i0|c128|p17;T.Natsui}
 11
0.7071067811865476
 21
0.7071067811865475
 31
0.0
 73
     1
 44
1.0
  0
ENDSEC
  0
SECTION
  2
OBJECTS
  0
DICTIONARY
  5
743A
330
0
100
AcDbDictionary
281
     1
  3
ACAD_GROUP
350
743B
  3
ACAD_LAYOUT
350
7BFE
  3
ACAD_MLINESTYLE
350
743C
  3
ACAD_PLOTSETTINGS
350
7BFF
  3
ACAD_PLOTSTYLENAME
350
7BFC
  3
AcadDim
350
7D9F
  3
AcDbVariableDictionary
350
8616
  3
CONTENTDICTIONARY
350
754E
  0
DICTIONARY
  5
743B
102
{ACAD_REACTORS
330
743A
102
}
330
0
100
AcDbDictionary
281
     1
  3
*A1
350
7557
  3
*A2
350
7569
  0
DICTIONARY
  5
7BFE
102
{ACAD_REACTORS
330
743A
102
}
330
743A
100
AcDbDictionary
281
     1
  3
Model
350
7C00
  3
ﾚｲｱｳﾄ1
350
7C01
  0
DICTIONARY
  5
743C
102
{ACAD_REACTORS
330
743A
102
}
330
0
100
AcDbDictionary
281
     1
  3
STANDARD
350
7449
  0
DICTIONARY
  5
7BFF
102
{ACAD_REACTORS
330
743A
102
}
330
743A
100
AcDbDictionary
281
     1
  0
ACDBDICTIONARYWDFLT
  5
7BFC
102
{ACAD_REACTORS
330
743A
102
}
330
743A
100
AcDbDictionary
281
     1
  3
Normal
350
7BFD
100
AcDbDictionaryWithDefault
340
7BFD
  0
XRECORD
  5
7D9F
102
{ACAD_REACTORS
330
743A
102
}
330
743A
100
AcDbXrecord
280
     1
 90
   990106
  3

 60
     0
 61
     0
 62
     1
 63
     3
 64
     0
 65
     0
 66
     0
 67
     3
 68
     1
 69
     0
 70
     0
 71
     0
 72
     0
 40
0.0
170
     0
340
0
  0
DICTIONARY
  5
8616
102
{ACAD_REACTORS
330
743A
102
}
330
743A
100
AcDbDictionary
281
     1
  3
DIMASSOC
350
8617
  0
DICTIONARY
  5
754E
102
{ACAD_REACTORS
330
743A
102
}
330
743A
100
AcDbDictionary
281
     1
  0
GROUP
  5
7557
102
{ACAD_REACTORS
330
743B
102
}
330
743B
100
AcDbGroup
300

 70
     1
 71
     1
  0
GROUP
  5
7569
102
{ACAD_REACTORS
330
743B
102
}
330
743B
100
AcDbGroup
300

 70
     1
 71
     1
  0
LAYOUT
  5
7C00
102
{ACAD_REACTORS
330
7BFE
102
}
330
7BFE
100
AcDbPlotSettings
  1

  2
HP DeskJet 1120C Printer
  4

  6

 40
0.0
 41
0.0
 42
0.0
 43
0.0
 44
0.0
 45
0.0
 46
0.0
 47
0.0
 48
0.0
 49
0.0
140
0.0
141
0.0
142
1.0
143
1.0
 70
  1712
 72
     0
 73
     0
 74
     0
  7

 75
     0
147
1.0
148
0.0
149
0.0
100
AcDbLayout
  1
Model
 70
     1
 71
     0
 10
0.0
 20
0.0
 11
12.0
 21
9.0
 12
0.0
 22
0.0
 32
0.0
 14
0.0
 24
0.0
 34
0.0
 15
0.0
 25
0.0
 35
0.0
146
0.0
 13
0.0
 23
0.0
 33
0.0
 16
1.0
 26
0.0
 36
0.0
 17
0.0
 27
1.0
 37
0.0
 76
     0
330
7446
  0
LAYOUT
  5
7C01
102
{ACAD_REACTORS
330
7BFE
102
}
330
7BFE
100
AcDbPlotSettings
  1

  2
Adobe PDF
  4
User32767
  6

 40
3.174999952316284
 41
3.174999952316284
 42
3.175003051757812
 43
3.17498779296875
 44
209.9098358154297
 45
297.0318298339843
 46
0.0
 47
0.0
 48
0.0
 49
0.0
140
0.0
141
0.0
142
1.0
143
1.031712909667293
 70
   656
 72
     1
 73
     1
 74
     1
  7

 75
     0
147
0.9692618853848401
148
-7.635278750546831
149
0.0040185815441873
100
AcDbLayout
  1
ﾚｲｱｳﾄ1
 70
     0
 71
     1
 10
4.359602856504904
 20
-3.279707020541938
 11
310.8111762783253
 21
213.2869804563788
 12
0.0
 22
0.0
 32
0.0
 14
7.656745581039785
 24
0.0
 34
0.0
 15
297.0
 25
210.0
 35
0.0
146
0.0
 13
0.0
 23
0.0
 33
0.0
 16
1.0
 26
0.0
 36
0.0
 17
0.0
 27
1.0
 37
0.0
 76
     0
330
7443
331
74F9
  0
MLINESTYLE
  5
7449
102
{ACAD_REACTORS
330
743C
102
}
330
0
100
AcDbMlineStyle
  2
STANDARD
 70
     0
  3

 62
     0
 51
90.0
 52
90.0
 71
     2
 49
0.5
 62
   256
  6
BYLAYER
 49
-0.5
 62
   256
  6
BYLAYER
  0
ACDBPLACEHOLDER
  5
7BFD
102
{ACAD_REACTORS
330
7BFC
102
}
330
7BFC
  0
DICTIONARYVAR
  5
8617
102
{ACAD_REACTORS
330
8616
102
}
330
8616
100
DictionaryVariables
280
     0
  1
1
  0
ENDSEC
  0
EOF
